Скачать через торрент музыку Blood & Thunder бесплатно без регистрации torrent

Если у вас наблюдаются проблемы со скриншотами, переходом по ссылками, скачиванием торрентов - проблемы в блокировщике рекламы AdBlock. #хорошегоДня!


Статистика раздачи
Размер:  230 MB   |    Зарегистрирован:  3 года 9 месяцев   |    .torrent скачан:  33 раза   |   
Раздают:  1  
   
Загрузка...
 
Автор Сообщение

Galfimbul

avatar Galfimbul


Blood & Thunder
The Seattle Symphony Orchestra conducted by Cliff Eidelman
Parades, processionals and attacks from Hollywood''s most epic films

Жанр: Score
Композиторы: Miklós Rózsa, Alfred Newman, Jerry Goldsmith, Alex North, Bernard Herrmann, Elmer Bernstein, Franz Waxman, Bronislaw Kaper
Год выпуска: 1995
Страна-производитель диска: USA
Издатель (лейбл): Varese Sarabande
Номер по каталогу: VSD 5561
Аудио кодек: FLAC (*.flac)
Тип рипа: tracks+.cue
Битрейт аудио: lossless
Продолжительность: 00:38:51
Источник: Собственный рип
Наличие сканов в содержимом раздачи: да

Also contains music from:
*Ben-Hur
*Captain From Castile
*Cleopatra
*Wind And The Lion, The
*North By Northwest
*Ten Commandments, The
*Taras Bulba
*Mutiny On The Bounty


Треклист:
1. Parade of the Charioteers (03:34) - Ben Hur (Miklos Rozsa)
2. Conquest (03:17) - Captain From Castile (Alfred Newman)
3. Caesar & Cleopatra (03:33) - Cleopatra (Alex North)
4. Cleopatra Enters Rome (03:41) - Cleopatra (Alex North)
5. Antony And Cleopatra (02:42) - Cleopatra (Alex North)
6. Raisuli Attacks (03:29) - The Wind And The Lion (Jerry Goldsmith)
7. Overture (02:58) - North By Northwest (Bernard Herrmann)
8. Suite (07:28) - The Ten Commandments (Elmer Bernstein)
9. The Ride of the Cossacks (04:50) - Taras Bulba (Franz Waxman)
10. Overture (03:19) - Mutiny On The Bounty (Bronislau Kaper)
Exact Audio Copy V1.0 beta 3 from 29. August 2011

EAC extraction logfile from 2. October 2013, 11:32

Cliff Eidelman / The Seattle Symphony Orchestra / Blood and Thunder

Used drive : PLEXTOR DVDR PX-L890SA Adapter: 0 ID: 1

Read mode : SecureUtilize accurate stream : YesDefeat audio cache : YesMake use of C2 pointers : No

Read offset correction : 6Overread into Lead-In and Lead-Out : NoFill up missing offset samples with silence : YesDelete leading and trailing silent blocks : NoNull samples used in CRC calculations : YesUsed interface : Native Win32 interface for Win NT & 2000Gap handling : Appended to previous track

Used output format : User Defined EncoderSelected bitrate : 768 kBit/sQuality : HighAdd ID3 tag : NoCommand line compressor : C:\Program Files\Exact Audio Copy\FLAC\FLAC.EXEAdditional command line options : -V -8 -T "Genre=%genre%" -T "Artist=%artist%" -T "Title=%title%" -T "Album=%albumtitle%" -T "Date=%year%" -T "Tracknumber=%tracknr%" -T "Comment=%comment%" %source%

TOC of the extracted CD

Track | Start | Length | Start sector | End sector --------------------------------------------------------- 1 | 0:00.00 | 3:35.25 | 0 | 16149 2 | 3:35.25 | 3:21.40 | 16150 | 31264 3 | 6:56.65 | 3:33.65 | 31265 | 47304 4 | 10:30.55 | 3:42.55 | 47305 | 64009 5 | 14:13.35 | 2:45.30 | 64010 | 76414 6 | 16:58.65 | 3:29.60 | 76415 | 92149 7 | 20:28.50 | 3:01.47 | 92150 | 105771 8 | 23:30.22 | 7:29.65 | 105772 | 139511 9 | 31:00.12 | 4:52.25 | 139512 | 161436 10 | 35:52.37 | 3:21.23 | 161437 | 176534

Track 1

Filename F:\torrent\Blood and Thunder_Cliff Eidelman\score\01 - Miklos Rozsa , Ben Hur - Parade of the Charioteers.wav

Pre-gap length 0:00:02.00

Peak level 93.3 % Extraction speed 4.8 X Track quality 100.0 % Test CRC 71DEADF3 Copy CRC 71DEADF3 Accurately ripped (confidence 3) [F5917529] (AR v1) Copy OK

Track 2

Filename F:\torrent\Blood and Thunder_Cliff Eidelman\score\02 - Alfred Newman , Captain From Castile - Conquest.wav

Peak level 93.3 % Extraction speed 4.6 X Track quality 99.9 % Test CRC 0444F205 Copy CRC 0444F205 Accurately ripped (confidence 3) [5F05EE29] (AR v1) Copy OK

Track 3

Filename F:\torrent\Blood and Thunder_Cliff Eidelman\score\03 - Alex North , Cleopatra - Caesar & Cleopatra.wav

Pre-gap length 0:00:03.35

Peak level 31.3 % Extraction speed 5.7 X Track quality 100.0 % Test CRC 3CDF9D78 Copy CRC 3CDF9D78 Accurately ripped (confidence 3) [BC4CA3A4] (AR v1) Copy OK

Track 4

Filename F:\torrent\Blood and Thunder_Cliff Eidelman\score\04 - Alex North , Cleopatra - Cleopatra Enters Rome.wav

Peak level 89.1 % Extraction speed 5.4 X Track quality 99.9 % Test CRC 3DA58D7B Copy CRC 3DA58D7B Accurately ripped (confidence 3) [FE8FDA80] (AR v1) Copy OK

Track 5

Filename F:\torrent\Blood and Thunder_Cliff Eidelman\score\05 - Alex North , Cleopatra - Antony and Cleopatra.wav

Peak level 93.7 % Extraction speed 6.2 X Track quality 100.0 % Test CRC DF96CAE5 Copy CRC DF96CAE5 Accurately ripped (confidence 3) [53CA5515] (AR v1) Copy OK

Track 6

Filename F:\torrent\Blood and Thunder_Cliff Eidelman\score\06 - Jerry Goldsmith , The Wind And The Lion - Raisuli Attacks.wav

Pre-gap length 0:00:02.33

Peak level 94.4 % Extraction speed 5.9 X Track quality 99.9 % Test CRC E3E30AFA Copy CRC E3E30AFA Accurately ripped (confidence 3) [C18C4CA9] (AR v1) Copy OK

Track 7

Filename F:\torrent\Blood and Thunder_Cliff Eidelman\score\07 - Bernard Herrmann , North By Northwest - Overture.wav

Peak level 91.5 % Extraction speed 6.8 X Track quality 100.0 % Test CRC 2319CF2C Copy CRC 2319CF2C Accurately ripped (confidence 3) [A13C6F66] (AR v1) Copy OK

Track 8

Filename F:\torrent\Blood and Thunder_Cliff Eidelman\score\08 - Elmer Bernstein , The Ten Commandments - Suite.wav

Pre-gap length 0:00:03.00

Peak level 86.9 % Extraction speed 7.7 X Track quality 99.9 % Test CRC 8954CF5A Copy CRC 8954CF5A Accurately ripped (confidence 3) [71FE7741] (AR v1) Copy OK

Track 9

Filename F:\torrent\Blood and Thunder_Cliff Eidelman\score\09 - Franz Waxman , Taras Bulba - The Ride of the Cossacks.wav

Pre-gap length 0:00:01.32

Peak level 93.3 % Extraction speed 8.4 X Track quality 100.0 % Test CRC 48A0B5A3 Copy CRC 48A0B5A3 Accurately ripped (confidence 3) [DB8A0722] (AR v1) Copy OK

Track 10

Filename F:\torrent\Blood and Thunder_Cliff Eidelman\score\10 - Bronislau Kaper , Mutiny On The Bounty - Overture.wav

Pre-gap length 0:00:01.25

Peak level 93.3 % Extraction speed 8.2 X Track quality 100.0 % Test CRC 40F93C20 Copy CRC 40F93C20 Accurately ripped (confidence 2) [8FE7C200] (AR v1) Copy OK

All tracks accurately ripped

No errors occurred

End of status report

==== Log checksum 088512B45AC94B89AB1020A6FA28B62B1DF3DDB917B3E9EFA6EBF5A7B4A5CB50 ====
REM GENRE SoundtrackREM DATE 1995REM DISCID 6409310AREM COMMENT "ExactAudioCopy v1.0b3"PERFORMER "Cliff Eidelman / The Seattle Symphony Orchestra"TITLE "Blood and Thunder"FILE "01 - Miklos Rozsa , Ben Hur - Parade of the Charioteers.wav" WAVE TRACK 01 AUDIO TITLE "Miklos Rozsa / Ben Hur - Parade of the Charioteers" PERFORMER "Cliff Eidelman / The Seattle Symphony Orchestra" INDEX 01 00:00:00FILE "02 - Alfred Newman , Captain From Castile - Conquest.wav" WAVE TRACK 02 AUDIO TITLE "Alfred Newman / Captain From Castile - Conquest" PERFORMER "Cliff Eidelman / The Seattle Symphony Orchestra" INDEX 01 00:00:00 TRACK 03 AUDIO TITLE "Alex North / Cleopatra - Caesar & Cleopatra" PERFORMER "Cliff Eidelman / The Seattle Symphony Orchestra" INDEX 00 03:18:05FILE "03 - Alex North , Cleopatra - Caesar & Cleopatra.wav" WAVE INDEX 01 00:00:00FILE "04 - Alex North , Cleopatra - Cleopatra Enters Rome.wav" WAVE TRACK 04 AUDIO TITLE "Alex North / Cleopatra - Cleopatra Enters Rome" PERFORMER "Cliff Eidelman / The Seattle Symphony Orchestra" INDEX 01 00:00:00FILE "05 - Alex North , Cleopatra - Antony and Cleopatra.wav" WAVE TRACK 05 AUDIO TITLE "Alex North / Cleopatra - Antony and Cleopatra" PERFORMER "Cliff Eidelman / The Seattle Symphony Orchestra" INDEX 01 00:00:00 TRACK 06 AUDIO TITLE "Jerry Goldsmith / The Wind And The Lion - Raisuli Attacks" PERFORMER "Cliff Eidelman / The Seattle Symphony Orchestra" INDEX 00 02:42:72FILE "06 - Jerry Goldsmith , The Wind And The Lion - Raisuli Attacks.wav" WAVE INDEX 01 00:00:00FILE "07 - Bernard Herrmann , North By Northwest - Overture.wav" WAVE TRACK 07 AUDIO TITLE "Bernard Herrmann / North By Northwest - Overture" PERFORMER "Cliff Eidelman / The Seattle Symphony Orchestra" INDEX 01 00:00:00 TRACK 08 AUDIO TITLE "Elmer Bernstein / The Ten Commandments - Suite" PERFORMER "Cliff Eidelman / The Seattle Symphony Orchestra" INDEX 00 02:58:47FILE "08 - Elmer Bernstein , The Ten Commandments - Suite.wav" WAVE INDEX 01 00:00:00 TRACK 09 AUDIO TITLE "Franz Waxman / Taras Bulba - The Ride of the Cossacks" PERFORMER "Cliff Eidelman / The Seattle Symphony Orchestra" INDEX 00 07:28:33FILE "09 - Franz Waxman , Taras Bulba - The Ride of the Cossacks.wav" WAVE INDEX 01 00:00:00 TRACK 10 AUDIO TITLE "Bronislau Kaper / Mutiny On The Bounty - Overture" PERFORMER "Cliff Eidelman / The Seattle Symphony Orchestra" INDEX 00 04:51:00FILE "10 - Bronislau Kaper , Mutiny On The Bounty - Overture.wav" WAVE INDEX 01 00:00:00
AUDIOCHECKER v2.0 beta (build 457) - by Dester - opdester@freemail.hu~~~~~~~~~~~~~~~~~~~~~~~~~~~~~~~~~~-=== DO NOT EDIT THIS FILE! ===-

Path: ...\score

01 -=- 01 - Miklos Rozsa , Ben Hur - Parade of the Charioteers.flac -=- CDDA (100%)02 -=- 02 - Alfred Newman , Captain From Castile - Conquest.flac -=- CDDA (100%)03 -=- 03 - Alex North , Cleopatra - Caesar & Cleopatra.flac -=- CDDA (100%)04 -=- 04 - Alex North , Cleopatra - Cleopatra Enters Rome.flac -=- CDDA (100%)05 -=- 05 - Alex North , Cleopatra - Antony and Cleopatra.flac -=- CDDA (100%)06 -=- 06 - Jerry Goldsmith , The Wind And The Lion - Raisuli Attacks.flac -=- CDDA (100%)07 -=- 07 - Bernard Herrmann , North By Northwest - Overture.flac -=- CDDA (100%)08 -=- 08 - Elmer Bernstein , The Ten Commandments - Suite.flac -=- CDDA (100%)09 -=- 09 - Franz Waxman , Taras Bulba - The Ride of the Cossacks.flac -=- CDDA (100%)10 -=- 10 - Bronislau Kaper , Mutiny On The Bounty - Overture.flac -=- CDDA (100%)

Summary 100,00% CDDA

176269172


Трекер:  [ 14-Дек-2013 21:44 ]

  

Скачать .torrent

Размер .torrent файла 20 KB


Размер: 230 MB
Хэш (hash) релиза: 6218e384ad2e257ddb6efd654fe3894c7b69f6bb

bot

Топик был перенесен в форум Саундтреки к фильмам и мультфильмам (lossless)

Перенес Galfimbul

Хотите добавить комментарий к записи скачать торрент Blood & Thunder

!Обратная связь