Скачать через торрент музыку 451 градус по Фаренгейту Fahrenheit 451 бесплатно без регистрации torrent

Если у вас наблюдаются проблемы со скриншотами, переходом по ссылками, скачиванием торрентов - проблемы в блокировщике рекламы AdBlock. #хорошегоДня!


Статистика раздачи
Размер:  187 MB   |    Зарегистрирован:  3 года 9 месяцев   |    .torrent скачан:  48 раз   |   
Раздают:  1  
   
Загрузка...
 
Автор Сообщение

Galfimbul

avatar Galfimbul


451 градус по Фаренгейту | Fahrenheit 451

Жанр: Score
Композитор: Bernard Herrmann
Год выпуска диска: 1995
Год выпуска фильма: 1966
Страна-производитель диска: USA
Издатель (лейбл): Varese Sarabande
Номер по каталогу: VSD 5551
Аудио кодек: FLAC (*.flac)
Тип рипа: tracks+.cue
Битрейт аудио: lossless
Продолжительность: 00:33:48
Источник: Собственный рип
Наличие сканов в содержимом раздачи: да

The Seattle Symphony Orchestra conducted by Joel McNeely.
Also contains music from:
*Man In The Gray Flannel Suit, The
*Tender Is The Night
*Ghost And Mrs. Muir, The
*Anna And The King Of Siam
Треклист:
tracks 1-10 Fahrenheit 451:
1. Prelude (01:32)
2. Fire Engine (01:07)
3. The Bedroom (01:47)
4. The Reading (02:03)
5. The Garden (01:26)
6. The Nightmare (01:55)
7. Flowers of Fire (01:18)
8. Flamethrower (00:38)
9. Captain''s Death (01:01)
10. The Road (03:42)
11. Main Title (02:11) - The Man In The Gray Flannel Suit
12. The Embrace (01:51) - Tender Is The Night
13. Andante Cantabile (03:33) - The Ghost And Mrs. Muir
tracks 14-17 Anna And The King Of Siam
14. Prelude (01:43)
15. Montage (01:15)
16. Elegy (04:23)
17. Coronation (02:23)
Exact Audio Copy V1.0 beta 3 from 29. August 2011

EAC extraction logfile from 7. October 2013, 17:03

Bernard Herrmann / Fahrenheit 451

Used drive : PLEXTOR DVDR PX-L890SA Adapter: 0 ID: 1

Read mode : SecureUtilize accurate stream : YesDefeat audio cache : YesMake use of C2 pointers : No

Read offset correction : 6Overread into Lead-In and Lead-Out : NoFill up missing offset samples with silence : YesDelete leading and trailing silent blocks : NoNull samples used in CRC calculations : YesUsed interface : Native Win32 interface for Win NT & 2000Gap handling : Appended to previous track

Used output format : User Defined EncoderSelected bitrate : 768 kBit/sQuality : HighAdd ID3 tag : NoCommand line compressor : C:\Program Files\Exact Audio Copy\FLAC\FLAC.EXEAdditional command line options : -V -8 -T "Genre=%genre%" -T "Artist=%artist%" -T "Title=%title%" -T "Album=%albumtitle%" -T "Date=%year%" -T "Tracknumber=%tracknr%" -T "Comment=%comment%" %source%

TOC of the extracted CD

Track | Start | Length | Start sector | End sector --------------------------------------------------------- 1 | 0:00.00 | 1:33.45 | 0 | 7019 2 | 1:33.45 | 1:07.42 | 7020 | 12086 3 | 2:41.12 | 1:47.38 | 12087 | 20149 4 | 4:28.50 | 2:04.22 | 20150 | 29471 5 | 6:32.72 | 1:26.40 | 29472 | 35961 6 | 7:59.37 | 1:56.43 | 35962 | 44704 7 | 9:56.05 | 1:19.05 | 44705 | 50634 8 | 11:15.10 | 0:39.17 | 50635 | 53576 9 | 11:54.27 | 1:02.08 | 53577 | 58234 10 | 12:56.35 | 3:45.22 | 58235 | 75131 11 | 16:41.57 | 2:13.30 | 75132 | 85136 12 | 18:55.12 | 1:53.20 | 85137 | 93631 13 | 20:48.32 | 3:37.05 | 93632 | 109911 14 | 24:25.37 | 1:45.40 | 109912 | 117826 15 | 26:11.02 | 1:16.73 | 117827 | 123599 16 | 27:28.00 | 4:23.70 | 123600 | 143394 17 | 31:51.70 | 2:24.05 | 143395 | 154199

Track 1

Filename F:\torrent\Fahrenheit 451_Bernard Herrmann\score\01 - Fahrenheit 451- Prelude.wav

Pre-gap length 0:00:02.00

Peak level 59.7 % Extraction speed 3.0 X Track quality 99.8 % Test CRC C482315E Copy CRC C482315E Cannot be verified as accurate (confidence 3) [2217D932], AccurateRip returned [45A26280] (AR v2) Copy OK

Track 2

Filename F:\torrent\Fahrenheit 451_Bernard Herrmann\score\02 - Fahrenheit 451- Fire Engine.wav

Pre-gap length 0:00:00.73

Peak level 84.8 % Extraction speed 3.6 X Track quality 100.0 % Test CRC CF2B319D Copy CRC CF2B319D Cannot be verified as accurate (confidence 3) [B750F399], AccurateRip returned [0CCA55FE] (AR v2) Copy OK

Track 3

Filename F:\torrent\Fahrenheit 451_Bernard Herrmann\score\03 - Fahrenheit 451- The Bedroom.wav

Pre-gap length 0:00:00.40

Peak level 93.4 % Extraction speed 4.3 X Track quality 100.0 % Test CRC 9EBF7A97 Copy CRC 9EBF7A97 Cannot be verified as accurate (confidence 3) [70318B6B], AccurateRip returned [0FD57C92] (AR v2) Copy OK

Track 4

Filename F:\torrent\Fahrenheit 451_Bernard Herrmann\score\04 - Fahrenheit 451- The Reading.wav

Pre-gap length 0:00:00.60

Peak level 22.1 % Extraction speed 4.8 X Track quality 100.0 % Test CRC 8471C230 Copy CRC 8471C230 Cannot be verified as accurate (confidence 3) [6E7FE96E], AccurateRip returned [96EE090F] (AR v2) Copy OK

Track 5

Filename F:\torrent\Fahrenheit 451_Bernard Herrmann\score\05 - Fahrenheit 451- The Garden.wav

Pre-gap length 0:00:00.55

Peak level 34.1 % Extraction speed 4.5 X Track quality 100.0 % Test CRC B85BA877 Copy CRC B85BA877 Cannot be verified as accurate (confidence 3) [7FEE21D0], AccurateRip returned [4B628263] (AR v2) Copy OK

Track 6

Filename F:\torrent\Fahrenheit 451_Bernard Herrmann\score\06 - Fahrenheit 451- The Nightmare.wav

Pre-gap length 0:00:00.62

Peak level 86.9 % Extraction speed 5.1 X Track quality 100.0 % Test CRC EE3DFDA5 Copy CRC EE3DFDA5 Cannot be verified as accurate (confidence 3) [C4620080], AccurateRip returned [76D44B87] (AR v2) Copy OK

Track 7

Filename F:\torrent\Fahrenheit 451_Bernard Herrmann\score\07 - Fahrenheit 451- Flowers of Fire.wav

Pre-gap length 0:00:01.03

Peak level 78.0 % Extraction speed 4.7 X Track quality 100.0 % Test CRC EECAE7BE Copy CRC EECAE7BE Cannot be verified as accurate (confidence 3) [00A7BEE0], AccurateRip returned [C2342752] (AR v2) Copy OK

Track 8

Filename F:\torrent\Fahrenheit 451_Bernard Herrmann\score\08 - Fahrenheit 451- Flamethrower.wav

Pre-gap length 0:00:01.10

Peak level 94.4 % Extraction speed 3.6 X Track quality 100.0 % Test CRC 62D83084 Copy CRC 62D83084 Cannot be verified as accurate (confidence 3) [EAA80650], AccurateRip returned [45E1D4FA] (AR v2) Copy OK

Track 9

Filename F:\torrent\Fahrenheit 451_Bernard Herrmann\score\09 - Fahrenheit 451- Captain''s Death.wav

Pre-gap length 0:00:01.12

Peak level 87.7 % Extraction speed 4.3 X Track quality 100.0 % Test CRC 53F33832 Copy CRC 53F33832 Cannot be verified as accurate (confidence 3) [6B1A6210], AccurateRip returned [A191023B] (AR v2) Copy OK

Track 10

Filename F:\torrent\Fahrenheit 451_Bernard Herrmann\score\10 - Fahrenheit 451- The Road.wav

Pre-gap length 0:00:01.10

Peak level 51.9 % Extraction speed 6.4 X Track quality 100.0 % Test CRC 093A759B Copy CRC 093A759B Cannot be verified as accurate (confidence 3) [21A8733A], AccurateRip returned [6CDD3E4D] (AR v2) Copy OK

Track 11

Filename F:\torrent\Fahrenheit 451_Bernard Herrmann\score\11 - The Man in the Grey Flannel Suit- Main Title.wav

Pre-gap length 0:00:03.05

Peak level 94.4 % Extraction speed 6.0 X Track quality 100.0 % Test CRC 98DDD36A Copy CRC 98DDD36A Cannot be verified as accurate (confidence 3) [409A02A0], AccurateRip returned [87942196] (AR v2) Copy OK

Track 12

Filename F:\torrent\Fahrenheit 451_Bernard Herrmann\score\12 - Tender is the Night- The Embrace.wav

Pre-gap length 0:00:02.42

Peak level 47.2 % Extraction speed 6.0 X Track quality 100.0 % Test CRC D264DD52 Copy CRC D264DD52 Cannot be verified as accurate (confidence 3) [A8185DC2], AccurateRip returned [D1497C27] (AR v2) Copy OK

Track 13

Filename F:\torrent\Fahrenheit 451_Bernard Herrmann\score\13 - The Ghost and Mrs. Muir- Andante Cantabile.wav

Pre-gap length 0:00:02.15

Peak level 26.1 % Extraction speed 7.1 X Track quality 100.0 % Test CRC A22EE79D Copy CRC A22EE79D Cannot be verified as accurate (confidence 3) [01B3EE8D], AccurateRip returned [4C929208] (AR v2) Copy OK

Track 14

Filename F:\torrent\Fahrenheit 451_Bernard Herrmann\score\14 - Anna and the King of Slam- Prelude.wav

Pre-gap length 0:00:03.47

Peak level 94.4 % Extraction speed 6.3 X Track quality 100.0 % Test CRC F5554D2F Copy CRC F5554D2F Cannot be verified as accurate (confidence 3) [566D7DF2], AccurateRip returned [8B918BFB] (AR v2) Copy OK

Track 15

Filename F:\torrent\Fahrenheit 451_Bernard Herrmann\score\15 - Anna and the King of Slam- Montage.wav

Pre-gap length 0:00:01.70

Peak level 82.1 % Extraction speed 5.8 X Track quality 100.0 % Test CRC CA5D06A0 Copy CRC CA5D06A0 Cannot be verified as accurate (confidence 3) [EBBB47D1], AccurateRip returned [726D69CA] (AR v2) Copy OK

Track 16

Filename F:\torrent\Fahrenheit 451_Bernard Herrmann\score\16 - Anna and the King of Slam- Elegy.wav

Pre-gap length 0:00:01.60

Peak level 14.1 % Extraction speed 7.0 X Track quality 99.9 % Test CRC FD0BAAC1 Copy CRC FD0BAAC1 Cannot be verified as accurate (confidence 3) [46AF1827], AccurateRip returned [2064D038] (AR v2) Copy OK

Track 17

Filename F:\torrent\Fahrenheit 451_Bernard Herrmann\score\17 - Anna and the King of Slam- Coronation.wav

Pre-gap length 0:00:00.70

Peak level 94.4 % Extraction speed 6.1 X Track quality 99.9 % Test CRC 9AA2BD11 Copy CRC 9AA2BD11 Cannot be verified as accurate (confidence 3) [9CDD4E5F], AccurateRip returned [22549346] (AR v2) Copy OK

No tracks could be verified as accurateYou may have a different pressing from the one(s) in the database

No errors occurred

End of status report

==== Log checksum C4F732E1461F33A5BEC2C81457E361A9D53DE3097A44CA0C6AC6E56349329A02 ====
REM GENRE SoundtrackREM DATE 1995REM DISCID E2080811REM COMMENT "ExactAudioCopy v1.0b3"PERFORMER "Bernard Herrmann"TITLE "Fahrenheit 451"FILE "01 - Fahrenheit 451- Prelude.wav" WAVE TRACK 01 AUDIO TITLE "Fahrenheit 451: Prelude" PERFORMER "Bernard Herrmann" INDEX 01 00:00:00 TRACK 02 AUDIO TITLE "Fahrenheit 451: Fire Engine" PERFORMER "Bernard Herrmann" INDEX 00 01:32:47FILE "02 - Fahrenheit 451- Fire Engine.wav" WAVE INDEX 01 00:00:00 TRACK 03 AUDIO TITLE "Fahrenheit 451: The Bedroom" PERFORMER "Bernard Herrmann" INDEX 00 01:07:02FILE "03 - Fahrenheit 451- The Bedroom.wav" WAVE INDEX 01 00:00:00 TRACK 04 AUDIO TITLE "Fahrenheit 451: The Reading" PERFORMER "Bernard Herrmann" INDEX 00 01:46:53FILE "04 - Fahrenheit 451- The Reading.wav" WAVE INDEX 01 00:00:00 TRACK 05 AUDIO TITLE "Fahrenheit 451: The Garden" PERFORMER "Bernard Herrmann" INDEX 00 02:03:42FILE "05 - Fahrenheit 451- The Garden.wav" WAVE INDEX 01 00:00:00 TRACK 06 AUDIO TITLE "Fahrenheit 451: The Nightmare" PERFORMER "Bernard Herrmann" INDEX 00 01:25:53FILE "06 - Fahrenheit 451- The Nightmare.wav" WAVE INDEX 01 00:00:00 TRACK 07 AUDIO TITLE "Fahrenheit 451: Flowers of Fire" PERFORMER "Bernard Herrmann" INDEX 00 01:55:40FILE "07 - Fahrenheit 451- Flowers of Fire.wav" WAVE INDEX 01 00:00:00 TRACK 08 AUDIO TITLE "Fahrenheit 451: Flamethrower" PERFORMER "Bernard Herrmann" INDEX 00 01:17:70FILE "08 - Fahrenheit 451- Flamethrower.wav" WAVE INDEX 01 00:00:00 TRACK 09 AUDIO TITLE "Fahrenheit 451: Captain''s Death" PERFORMER "Bernard Herrmann" INDEX 00 00:38:05FILE "09 - Fahrenheit 451- Captain''s Death.wav" WAVE INDEX 01 00:00:00 TRACK 10 AUDIO TITLE "Fahrenheit 451: The Road" PERFORMER "Bernard Herrmann" INDEX 00 01:00:73FILE "10 - Fahrenheit 451- The Road.wav" WAVE INDEX 01 00:00:00 TRACK 11 AUDIO TITLE "The Man in the Grey Flannel Suit: Main Title" PERFORMER "Bernard Herrmann" INDEX 00 03:42:17FILE "11 - The Man in the Grey Flannel Suit- Main Title.wav" WAVE INDEX 01 00:00:00 TRACK 12 AUDIO TITLE "Tender is the Night: The Embrace" PERFORMER "Bernard Herrmann" INDEX 00 02:10:63FILE "12 - Tender is the Night- The Embrace.wav" WAVE INDEX 01 00:00:00 TRACK 13 AUDIO TITLE "The Ghost and Mrs. Muir: Andante Cantabile" PERFORMER "Bernard Herrmann" INDEX 00 01:51:05FILE "13 - The Ghost and Mrs. Muir- Andante Cantabile.wav" WAVE INDEX 01 00:00:00 TRACK 14 AUDIO TITLE "Anna and the King of Slam: Prelude" PERFORMER "Bernard Herrmann" INDEX 00 03:33:33FILE "14 - Anna and the King of Slam- Prelude.wav" WAVE INDEX 01 00:00:00 TRACK 15 AUDIO TITLE "Anna and the King of Slam: Montage" PERFORMER "Bernard Herrmann" INDEX 00 01:43:45FILE "15 - Anna and the King of Slam- Montage.wav" WAVE INDEX 01 00:00:00 TRACK 16 AUDIO TITLE "Anna and the King of Slam: Elegy" PERFORMER "Bernard Herrmann" INDEX 00 01:15:13FILE "16 - Anna and the King of Slam- Elegy.wav" WAVE INDEX 01 00:00:00 TRACK 17 AUDIO TITLE "Anna and the King of Slam: Coronation" PERFORMER "Bernard Herrmann" INDEX 00 04:23:00FILE "17 - Anna and the King of Slam- Coronation.wav" WAVE INDEX 01 00:00:00
AUDIOCHECKER v2.0 beta (build 457) - by Dester - opdester@freemail.hu~~~~~~~~~~~~~~~~~~~~~~~~~~~~~~~~~~-=== DO NOT EDIT THIS FILE! ===-

Path: ...\score

01 -=- 01 - Fahrenheit 451- Prelude.flac -=- CDDA (100%)02 -=- 02 - Fahrenheit 451- Fire Engine.flac -=- CDDA (100%)03 -=- 03 - Fahrenheit 451- The Bedroom.flac -=- CDDA (100%)04 -=- 04 - Fahrenheit 451- The Reading.flac -=- CDDA (100%)05 -=- 05 - Fahrenheit 451- The Garden.flac -=- CDDA (100%)06 -=- 06 - Fahrenheit 451- The Nightmare.flac -=- CDDA (100%)07 -=- 07 - Fahrenheit 451- Flowers of Fire.flac -=- CDDA (100%)08 -=- 08 - Fahrenheit 451- Flamethrower.flac -=- CDDA (100%)09 -=- 09 - Fahrenheit 451- Captain''s Death.flac -=- CDDA (99%)10 -=- 10 - Fahrenheit 451- The Road.flac -=- CDDA (100%)11 -=- 11 - The Man in the Grey Flannel Suit- Main Title.flac -=- CDDA (100%)12 -=- 12 - Tender is the Night- The Embrace.flac -=- CDDA (100%)13 -=- 13 - The Ghost and Mrs. Muir- Andante Cantabile.flac -=- CDDA (100%)14 -=- 14 - Anna and the King of Slam- Prelude.flac -=- CDDA (100%)15 -=- 15 - Anna and the King of Slam- Montage.flac -=- CDDA (100%)16 -=- 16 - Anna and the King of Slam- Elegy.flac -=- CDDA (100%)17 -=- 17 - Anna and the King of Slam- Coronation.flac -=- CDDA (99%)

Summary 99,88% CDDA

123121300


Трекер:  [ 14-Дек-2013 21:44 ]

  

Скачать .torrent

Размер .torrent файла 17 KB


Размер: 187 MB
Хэш (hash) релиза: e8d82854643fabae6749e04e3484485b5467bced

Торренты, похожие на 451 градус по Фаренгейту Fahrenheit 451 скачать торрент

Форум Название Автор Размер S L Добавлен
Саундтреки к фильмам и мультфильмам (mp3) ·· (Score) 451 градус по Фаренгейту / Fahrenheit 451 (1966) — Bernard Herrmann (также The Twilight Zone: Walking Distance (1959)) — 2007, MP3 (tracks), 192 kbps Galfimbul 112530674107 MB 0 0 1481548709

16:18

12-Дек-16

Саундтреки к фильмам и мультфильмам (lossless) ·· (Score) 451 градус по Фаренгейту / Fahrenheit 451 (by Bernard Herrmann) - 1995 (1966), FLAC (image+.cue), lossless uzi2009 172390616164 MB 0 0 1326393194

21:33

12-Янв-12

bot

Топик был перенесен в форум Саундтреки к фильмам и мультфильмам (lossless)

Перенес Galfimbul

Хотите добавить комментарий к записи скачать торрент 451 градус по Фаренгейту Fahrenheit 451

!Обратная связь