Скачать порно через торрент Imouto Paradise! 2 Райские сестрички! 2 UnionPeer.org бесплатно онлайн HD качество

Скачать новое порно 2015, 2014 новинки через торрент UnionPeer.org

Порно торрент бесплатно ЮнионПир.орг

Если у вас наблюдаются проблемы со скриншотами, переходом по ссылками, скачиванием торрентов - проблемы в блокировщике рекламы AdBlock. #хорошегоДня!


Статистика раздачи
Размер:  570 MB   |    Зарегистрирован:  4 года   |    .torrent скачан:  183 раза   |   
Раздают:  1  
   
Загрузка...
 
Автор Сообщение

LinGr

avatar LinGr


Imouto Paradise! 2 / 妹ぱらだいす! 2
Райские сестрички! 2

Год производства: 2013 г.
Жанр: Big tits, Oral sex, Incest, Masturbation
Серии: ep. 1 of 2
Продолжительность: 1х~15 min + 5 min трейлеры
Цензура: Есть

Озвучка: Японская (Оригинальная)

Режиссер: Murakami Teruaki
Автор оригинала: Moonstone Cherry
Студия: Mary Jane

Описание RUS:
Сестрички подросли и теперь как говорится в самом соку.Естественно братец не может не испытывать сексуального влечения к таким красоткам.Когда начались летние каникулы,а родители уехали заграницу,парень начинает действовать решительнее по отношению к сестренке.Она хоть и не показывает,что тоже хочет,однако втихую мастурбирует при помощи маленького вибратора,и однажды таки спалилась перед ним,все деваться некуда,отрицать что либо бесполезно,пора переходить к делу.

Описание ENG:
Sisters grew up in the prime age. The Keiichi, there was often that you will have an unhealthy feeling at the sight of such girls. Summer vacation and when I reached. Keiichi parents would go out to travel abroad. The sister thought, science people Nana a serious, brother erotic and becomes more and more vulgar in sloppily between parents absence, had to take a tough attitude Keiichi. However, our management that Nana even while saying I do not like things horny, are masturbating in secret.

Информационные ссылки: AniDB - World Art - ХентайМаг

Качество видео: DVD5
Формат видео: DVD Video
Видео кодек: MPEG2
Аудио кодек: AC3
Видео: 720х480, (16:9), 29,970 кадров/сек, ~ 3500 Кбит/сек, NTSC
Аудио : JAP, AC-3, 2 канала, 224 Кбит/сек, 48,0 КГц
Общее
Полное имя : J:\VIDEO_TS\VTS_01_1.VOB
Формат : MPEG-PS
Размер файла : 564 Мбайт
Продолжительность : 7 с. 584 мс.
Общий поток : 624 Мбит/сек

Видео
Идентификатор : 224 (0xE0)
Формат : MPEG Video
Версия формата : Version 2
Профиль формата : Main@Main
Параметр BVOP формата : Да
Параметр матрицы формата : По умолчанию
Параметр GOP формата : Variable
Продолжительность : 33 мс.
Битрейт : 612 Мбит/сек
Ширина : 720 пикселей
Высота : 480 пикселей
Соотношение сторон : 16:9
Частота кадров : 29,970 кадров/сек
Стандарт вещания : NTSC
Цветовое пространство : YUV
Субдискретизация насыщенности : 4:2:0
Битовая глубина : 8 бит
Метод сжатия : С потерями
Бит/(Пиксели*Кадры) : 59.049
Размер потока : 2,43 Мбайт (0%)

Аудио
Идентификатор : 189 (0xBD)-128 (0x80)
Формат : AC-3
Формат/Информация : Audio Coding 3
Расширение режима : CM (complete main)
Параметр Endianness формата : Big
Режим смешивания : DVD-Video
Продолжительность : 7 с. 584 мс.
Вид битрейта : Постоянный
Битрейт : 224 Кбит/сек
Каналы : 2 канала
Расположение каналов : Front: L R
Частота : 48,0 КГц
Битовая глубина : 16 бит
Метод сжатия : С потерями
Размер потока : 207 Кбайт (0%)

Меню


Трекер:  [ 05-Ноя-2013 01:16 ]

  

Скачать .torrent

Размер .torrent файла 11 KB


Размер: 570 MB
Хэш (hash) релиза: 285367315a1e567efa66e5e7406fac62c6db6c45

Торренты, похожие на Imouto Paradise! 2 Райские сестрички! 2 скачать торрент

Форум Название Автор Размер S L Добавлен
Хентай | С цензурой ·· Imouto Paradise! 2 / Райские сестрички! 2 (Teruaki Murakami, Mary Jane, Rabbit Gate) (ep. 1-2 of 2) [cen] [2013 г. Big tits, Oral, Titfuck, Harem, Incest, DVDRip] [jap / eng / pol / rus] LinGr 343231450327 MB 0 0 1385649549

17:39

28-Ноя-13

Хентай | С цензурой ·· Imouto Paradise! 2 / Райские сестрички! 2 (Murakami Teruaki, Mary Jane) (ep. 1-2 of 2) [cen] [2013 г., Big tits, Oral sex, Incest, Masturbation, Titsjob, 2x DVD5] [jap] LinGr 13037655641.21 GB 0 0 1385304863

17:54

24-Ноя-13

Хентай | С цензурой ·· Imouto Paradise! 2 / Райские сестрички! 2 (Teruaki Murakami, Mary Jane, Rabbit Gate) (ep. 1 of 2) [cen] [2013 г. Big tits, Oral, Titfuck, Harem, Incest, Anal, DFC, DVDRip] [jap / eng / rus] LinGr 215889093206 MB 0 0 1379515121

17:38

18-Сен-13

Хентай, порно и эротические мультфильмы ·· Imouto Paradise! / Paradise Sisters! / Райские сестрички! (Murakami Teruaki / GOLD BEAR) (ep. 1-2 of 2) [cen] [2011 г., Anal, Big tits, DFC, Harem, Incest, Oral, Titfuck, DVD5] [jap] Galfimbul 33171763203.09 GB 0 0 1359361800

11:30

28-Янв-13

Хентай | С цензурой ·· Imouto Paradise! / Paradise Sisters! / Райские сестрички! (Teruaki Murakami, GOLD BEAR) (ep.1-2) [cen] [2012 г., Anal, Big tits, Oral, Titfuck, Harem, Incest, DFC, DVDRip] [jap/eng/rus] Galfimbul 413634535394 MB 0 0 1362386976

11:49

4-Мар-13

bot

Топик был перенесен в форум Хентай | С цензурой

Перенес LinGr

Хотите добавить комментарий к записи скачать торрент Imouto Paradise! 2 Райские сестрички! 2

!Обратная связь