Скачать через торрент музыку Чёрный красавец Black Beauty бесплатно без регистрации torrent

Если у вас наблюдаются проблемы со скриншотами, переходом по ссылками, скачиванием торрентов - проблемы в блокировщике рекламы AdBlock. #хорошегоДня!


Статистика раздачи
Размер:  486 MB   |    Зарегистрирован:  3 года 9 месяцев   |    .torrent скачан:  26 раз   |   
Раздают:  1  
   
Загрузка...
 
Автор Сообщение

Galfimbul

avatar Galfimbul


Чёрный красавец / Black Beauty
Жанр: Score
Композитор: Danny Elfman
Год выпуска диска: 2013
Год выпуска фильма: 1994
Производитель диска: USA
Издатель (лейбл): LaLaLand Records
Номер по каталогу: LLLCD 1273
Аудиокодек: FLAC (*.flac)
Тип рипа: tracks+.cue
Битрейт аудио: lossless
Продолжительность: 01:18:44
Источник: собственный рип
Наличие сканов в содержимом раздачи: нет (могу добавить позже)
Доп. информация: лимитированное издание, 3000 единиц
Danny Elfman на трекере: lossless # lossy
01. Main Titles [0:02:35.54]
02. Birth ("Baby Beauty") [0:04:43.29]
03. Gang on the Run / Bye Mum [0:04:38.72]
04. Beauty [0:01:20.24]
05. Merrylegs [0:02:05.33]
06. Kicking Up a Storm [0:01:37.50]
07. Jump for Joy (film version) [0:01:03.48]
08. The Rescue [0:02:29.08]
09. Sick [0:03:20.27]
10. He''s Back (Revival) / Frolic [0:04:01.48]
11. The Fire [0:03:44.06]
12. Carriage (unused) / The Dance / Bye Merrylegs [0:03:24.45]
13. Goodbye Joe [0:01:19.74]
14. Ginger Snaps [0:03:22.46]
15. Wound [0:00:54.34]
16. Wild Ride / Dream [0:02:15.51]
17. Injury / Job [0:02:39.28]
18. Is It Joe? [0:01:22.36]
19. Black Jack ("Mommy") [0:01:15.68]
20. Nuns / In the Country [0:03:36.52]
21. Poor Ginger! (film version) [0:03:52.13]
22. Sick Jerry [0:01:59.46]
23. Bye Jerry [0:01:13.57]
24. Hard Times / Epilogue: Saved ("Memories") [0:05:32.00]
25. End Credits [0:01:44.01]

Bonus Tracks:
26. Street Violin (source) [0:00:45.66]
27. Bye Mum (alternate) [0:00:47.56]
28. Job (alternate intro) [0:01:09.32]
29. Is It Joe? (alternate) [0:01:22.38]
30. Nuns (alternate) [0:00:58.45]
31. Sick Jerry (alternate) [0:02:01.46]
32. Jump for Joy (album version) [0:01:03.48]
33. Poor Ginger! (album version) [0:04:18.65]

Exact Audio Copy V1.0 beta 3 from 29. August 2011

EAC extraction logfile from 2. November 2013, 13:20

Danny Elfman / Black Beauty (2013, LLLCD 1273)

Used drive : PLEXTOR CD-R PX-230A Adapter: 0 ID: 0

Read mode : SecureUtilize accurate stream : YesDefeat audio cache : YesMake use of C2 pointers : No

Read offset correction : 738Overread into Lead-In and Lead-Out : NoFill up missing offset samples with silence : YesDelete leading and trailing silent blocks : NoNull samples used in CRC calculations : YesUsed interface : Native Win32 interface for Win NT & 2000Gap handling : Appended to previous track

Used output format : User Defined EncoderSelected bitrate : 1024 kBit/sQuality : HighAdd ID3 tag : NoCommand line compressor : C:\Program Files\Exact Audio Copy\Flac\flac.exeAdditional command line options : -6 -V -T "ARTIST=%artist%" -T "TITLE=%title%" -T "ALBUM=%albumtitle%" -T "DATE=%year%"-T "TRACKNUMBER=%tracknr%" -T "GENRE=%genre%" -T "COMMENT=%comment%" -T "ALBUMARTIST=%albuminterpret%" -T "COMPOSER=%composer%"-T "DISCNUMBER=%cdnumber%" -T "TOTALDISCS=%totalcds%" -T "TOTALTRACKS=%numtracks%" %source% -o %dest%

TOC of the extracted CD

Track | Start | Length | Start sector | End sector --------------------------------------------------------- 1 | 0:00.00 | 2:35.54 | 0 | 11678 2 | 2:35.54 | 4:43.29 | 11679 | 32932 3 | 7:19.08 | 4:38.72 | 32933 | 53854 4 | 11:58.05 | 1:20.24 | 53855 | 59878 5 | 13:18.29 | 2:05.33 | 59879 | 69286 6 | 15:23.62 | 1:37.50 | 69287 | 76611 7 | 17:01.37 | 1:03.48 | 76612 | 81384 8 | 18:05.10 | 2:29.08 | 81385 | 92567 9 | 20:34.18 | 3:20.27 | 92568 | 107594 10 | 23:54.45 | 4:01.48 | 107595 | 125717 11 | 27:56.18 | 3:44.06 | 125718 | 142523 12 | 31:40.24 | 3:24.45 | 142524 | 157868 13 | 35:04.69 | 1:19.74 | 157869 | 163867 14 | 36:24.68 | 3:22.46 | 163868 | 179063 15 | 39:47.39 | 0:54.34 | 179064 | 183147 16 | 40:41.73 | 2:15.51 | 183148 | 193323 17 | 42:57.49 | 2:39.28 | 193324 | 205276 18 | 45:37.02 | 1:22.36 | 205277 | 211462 19 | 46:59.38 | 1:15.68 | 211463 | 217155 20 | 48:15.31 | 3:36.52 | 217156 | 233407 21 | 51:52.08 | 3:52.13 | 233408 | 250820 22 | 55:44.21 | 1:59.46 | 250821 | 259791 23 | 57:43.67 | 1:13.57 | 259792 | 265323 24 | 58:57.49 | 5:32.00 | 265324 | 290223 25 | 64:29.49 | 1:44.01 | 290224 | 298024 26 | 66:13.50 | 0:45.66 | 298025 | 301465 27 | 66:59.41 | 0:47.56 | 301466 | 305046 28 | 67:47.22 | 1:09.32 | 305047 | 310253 29 | 68:56.54 | 1:22.38 | 310254 | 316441 30 | 70:19.17 | 0:58.45 | 316442 | 320836 31 | 71:17.62 | 2:01.46 | 320837 | 329957 32 | 73:19.33 | 1:03.48 | 329958 | 334730 33 | 74:23.06 | 4:18.65 | 334731 | 354145

Track 1

Filename C:\Music\01 - Main Titles.wav

Pre-gap length 0:00:02.00

Peak level 98.8 % Extraction speed 3.9 X Track quality 99.9 % Test CRC EC8C5285 Copy CRC EC8C5285 Track not present in AccurateRip database Copy OK

Track 2

Filename C:\Music\02 - Birth (''''Baby Beauty'''').wav

Pre-gap length 0:00:02.00

Peak level 94.8 % Extraction speed 4.3 X Track quality 100.0 % Test CRC 6BEE0152 Copy CRC 6BEE0152 Track not present in AccurateRip database Copy OK

Track 3

Filename C:\Music\03 - Gang on the Run - Bye Mum.wav

Pre-gap length 0:00:02.00

Peak level 98.3 % Extraction speed 4.0 X Track quality 100.0 % Test CRC 57871F17 Copy CRC 57871F17 Track not present in AccurateRip database Copy OK

Track 4

Filename C:\Music\04 - Beauty.wav

Pre-gap length 0:00:02.00

Peak level 81.1 % Extraction speed 2.8 X Track quality 99.8 % Test CRC AC201F87 Copy CRC AC201F87 Track not present in AccurateRip database Copy OK

Track 5

Filename C:\Music\05 - Merrylegs.wav

Pre-gap length 0:00:02.00

Peak level 71.3 % Extraction speed 3.7 X Track quality 100.0 % Test CRC CAB8667A Copy CRC CAB8667A Track not present in AccurateRip database Copy OK

Track 6

Filename C:\Music\06 - Kicking Up a Storm.wav

Pre-gap length 0:00:02.00

Peak level 98.4 % Extraction speed 3.6 X Track quality 100.0 % Test CRC 4D2A8AE6 Copy CRC 4D2A8AE6 Track not present in AccurateRip database Copy OK

Track 7

Filename C:\Music\07 - Jump for Joy (film version).wav

Pre-gap length 0:00:02.00

Peak level 96.1 % Extraction speed 4.2 X Track quality 100.0 % Test CRC C985B1A7 Copy CRC C985B1A7 Track not present in AccurateRip database Copy OK

Track 8

Filename C:\Music\08 - The Rescue.wav

Pre-gap length 0:00:02.00

Peak level 99.6 % Extraction speed 4.0 X Track quality 100.0 % Test CRC 6EBE0DCE Copy CRC 6EBE0DCE Track not present in AccurateRip database Copy OK

Track 9

Filename C:\Music\09 - Sick.wav

Pre-gap length 0:00:02.00

Peak level 47.9 % Extraction speed 4.2 X Track quality 100.0 % Test CRC 10C7D33E Copy CRC 10C7D33E Track not present in AccurateRip database Copy OK

Track 10

Filename C:\Music\10 - He''s Back (Revival) - Frolic.wav

Pre-gap length 0:00:02.00

Peak level 65.9 % Extraction speed 4.0 X Track quality 100.0 % Test CRC 557C8E52 Copy CRC 557C8E52 Track not present in AccurateRip database Copy OK

Track 11

Filename C:\Music\11 - The Fire.wav

Pre-gap length 0:00:02.00

Peak level 99.1 % Extraction speed 3.8 X Track quality 99.9 % Test CRC 45055EFB Copy CRC 45055EFB Track not present in AccurateRip database Copy OK

Track 12

Filename C:\Music\12 - Carriage (unused) - The Dance - Bye Merrylegs.wav

Pre-gap length 0:00:02.00

Peak level 71.1 % Extraction speed 4.1 X Track quality 100.0 % Test CRC DED35898 Copy CRC DED35898 Track not present in AccurateRip database Copy OK

Track 13

Filename C:\Music\13 - Goodbye Joe.wav

Pre-gap length 0:00:02.00

Peak level 25.7 % Extraction speed 2.5 X Track quality 99.8 % Test CRC 3782F342 Copy CRC 3782F342 Track not present in AccurateRip database Copy OK

Track 14

Filename C:\Music\14 - Ginger Snaps.wav

Pre-gap length 0:00:02.00

Peak level 99.7 % Extraction speed 4.8 X Track quality 100.0 % Test CRC 1E3BAF9C Copy CRC 1E3BAF9C Track not present in AccurateRip database Copy OK

Track 15

Filename C:\Music\15 - Wound.wav

Pre-gap length 0:00:02.00

Peak level 24.7 % Extraction speed 2.5 X Track quality 99.8 % Test CRC 60B638FB Copy CRC 60B638FB Track not present in AccurateRip database Copy OK

Track 16

Filename C:\Music\16 - Wild Ride - Dream.wav

Pre-gap length 0:00:02.00

Peak level 98.6 % Extraction speed 3.5 X Track quality 100.0 % Test CRC 718F16FF Copy CRC 718F16FF Track not present in AccurateRip database Copy OK

Track 17

Filename C:\Music\17 - Injury - Job.wav

Pre-gap length 0:00:02.00

Peak level 76.5 % Extraction speed 3.3 X Track quality 99.9 % Test CRC 83417A41 Copy CRC 83417A41 Track not present in AccurateRip database Copy OK

Track 18

Filename C:\Music\18 - Is It Joe.wav

Pre-gap length 0:00:02.00

Peak level 46.2 % Extraction speed 3.6 X Track quality 100.0 % Test CRC B3F12E8E Copy CRC B3F12E8E Track not present in AccurateRip database Copy OK

Track 19

Filename C:\Music\19 - Black Jack (''''Mommy'''').wav

Pre-gap length 0:00:02.00

Peak level 24.9 % Extraction speed 3.6 X Track quality 100.0 % Test CRC 7D710375 Copy CRC 7D710375 Track not present in AccurateRip database Copy OK

Track 20

Filename C:\Music\20 - Nuns - In the Country.wav

Pre-gap length 0:00:02.00

Peak level 70.2 % Extraction speed 4.7 X Track quality 100.0 % Test CRC EF5F9FC3 Copy CRC EF5F9FC3 Track not present in AccurateRip database Copy OK

Track 21

Filename C:\Music\21 - Poor Ginger! (film version).wav

Pre-gap length 0:00:02.00

Peak level 38.0 % Extraction speed 4.3 X Track quality 100.0 % Test CRC 98A475AA Copy CRC 98A475AA Track not present in AccurateRip database Copy OK

Track 22

Filename C:\Music\22 - Sick Jerry.wav

Pre-gap length 0:00:02.00

Peak level 23.3 % Extraction speed 4.6 X Track quality 100.0 % Test CRC 374F02F1 Copy CRC 374F02F1 Track not present in AccurateRip database Copy OK

Track 23

Filename C:\Music\23 - Bye Jerry.wav

Pre-gap length 0:00:02.00

Peak level 39.7 % Extraction speed 3.3 X Track quality 100.0 % Test CRC 70652839 Copy CRC 70652839 Track not present in AccurateRip database Copy OK

Track 24

Filename C:\Music\24 - Hard Times - Epilogue- Saved (''''Memories'''').wav

Pre-gap length 0:00:02.00

Peak level 99.1 % Extraction speed 5.3 X Track quality 99.9 % Test CRC 9C1C1629 Copy CRC 9C1C1629 Track not present in AccurateRip database Copy OK

Track 25

Filename C:\Music\25 - End Credits.wav

Pre-gap length 0:00:02.00

Peak level 99.0 % Extraction speed 3.9 X Track quality 100.0 % Test CRC 4F98C82E Copy CRC 4F98C82E Track not present in AccurateRip database Copy OK

Track 26

Filename C:\Music\26 - Street Violin (source).wav

Pre-gap length 0:00:06.00

Peak level 20.9 % Extraction speed 3.1 X Track quality 100.0 % Test CRC F0E72A09 Copy CRC F0E72A09 Track not present in AccurateRip database Copy OK

Track 27

Filename C:\Music\27 - Bye Mum (alternate).wav

Pre-gap length 0:00:04.00

Peak level 25.2 % Extraction speed 3.6 X Track quality 100.0 % Test CRC 77D65FB9 Copy CRC 77D65FB9 Track not present in AccurateRip database Copy OK

Track 28

Filename C:\Music\28 - Job (alternate intro).wav

Pre-gap length 0:00:02.00

Peak level 84.6 % Extraction speed 3.8 X Track quality 100.0 % Test CRC D4B0CB13 Copy CRC D4B0CB13 Track not present in AccurateRip database Copy OK

Track 29

Filename C:\Music\29 - Is It Joe (alternate).wav

Pre-gap length 0:00:02.00

Peak level 57.8 % Extraction speed 3.6 X Track quality 100.0 % Test CRC F509061F Copy CRC F509061F Track not present in AccurateRip database Copy OK

Track 30

Filename C:\Music\30 - Nuns (alternate).wav

Pre-gap length 0:00:02.00

Peak level 33.8 % Extraction speed 3.1 X Track quality 100.0 % Test CRC 3D506D8D Copy CRC 3D506D8D Track not present in AccurateRip database Copy OK

Track 31

Filename C:\Music\31 - Sick Jerry (alternate).wav

Pre-gap length 0:00:02.00

Peak level 23.1 % Extraction speed 3.8 X Track quality 100.0 % Test CRC A2A71DA7 Copy CRC A2A71DA7 Track not present in AccurateRip database Copy OK

Track 32

Filename C:\Music\32 - Jump for Joy (album version).wav

Pre-gap length 0:00:04.00

Peak level 92.1 % Extraction speed 4.0 X Track quality 100.0 % Test CRC 1DF475BD Copy CRC 1DF475BD Track not present in AccurateRip database Copy OK

Track 33

Filename C:\Music\33 - Poor Ginger! (album version).wav

Pre-gap length 0:00:02.00

Peak level 59.0 % Extraction speed 4.4 X Track quality 100.0 % Test CRC B7DEEB3A Copy CRC B7DEEB3A Track not present in AccurateRip database Copy OK

None of the tracks are present in the AccurateRip database

No errors occurred

End of status report

==== Log checksum FB56DB6E14EA405137CB0379260C33C6CE94A78D3F64C2095D8EAEB5B57AAEBA ====
REM GENRE SoundtrackREM DATE 1994REM DISCID EB127121REM COMMENT "ExactAudioCopy v1.0b3"PERFORMER "Danny Elfman"TITLE "Black Beauty (2013, LLLCD 1273)"FILE "01 - Main Titles.wav" WAVE TRACK 01 AUDIO TITLE "Main Titles" PERFORMER "Danny Elfman" FLAGS DCP INDEX 01 00:00:00 TRACK 02 AUDIO TITLE "Birth (''Baby Beauty'')" PERFORMER "Danny Elfman" FLAGS DCP INDEX 00 02:33:54FILE "02 - Birth (''''Baby Beauty'''').wav" WAVE INDEX 01 00:00:00 TRACK 03 AUDIO TITLE "Gang on the Run / Bye Mum" PERFORMER "Danny Elfman" FLAGS DCP INDEX 00 04:41:29FILE "03 - Gang on the Run - Bye Mum.wav" WAVE INDEX 01 00:00:00 TRACK 04 AUDIO TITLE "Beauty" PERFORMER "Danny Elfman" FLAGS DCP INDEX 00 04:36:72FILE "04 - Beauty.wav" WAVE INDEX 01 00:00:00 TRACK 05 AUDIO TITLE "Merrylegs" PERFORMER "Danny Elfman" FLAGS DCP INDEX 00 01:18:24FILE "05 - Merrylegs.wav" WAVE INDEX 01 00:00:00 TRACK 06 AUDIO TITLE "Kicking Up a Storm" PERFORMER "Danny Elfman" FLAGS DCP INDEX 00 02:03:33FILE "06 - Kicking Up a Storm.wav" WAVE INDEX 01 00:00:00 TRACK 07 AUDIO TITLE "Jump for Joy (film version)" PERFORMER "Danny Elfman" FLAGS DCP INDEX 00 01:35:50FILE "07 - Jump for Joy (film version).wav" WAVE INDEX 01 00:00:00 TRACK 08 AUDIO TITLE "The Rescue" PERFORMER "Danny Elfman" FLAGS DCP INDEX 00 01:01:48FILE "08 - The Rescue.wav" WAVE INDEX 01 00:00:00 TRACK 09 AUDIO TITLE "Sick" PERFORMER "Danny Elfman" FLAGS DCP INDEX 00 02:27:08FILE "09 - Sick.wav" WAVE INDEX 01 00:00:00 TRACK 10 AUDIO TITLE "He''s Back (Revival) / Frolic" PERFORMER "Danny Elfman" FLAGS DCP INDEX 00 03:18:27FILE "10 - He''s Back (Revival) - Frolic.wav" WAVE INDEX 01 00:00:00 TRACK 11 AUDIO TITLE "The Fire" PERFORMER "Danny Elfman" FLAGS DCP INDEX 00 03:59:48FILE "11 - The Fire.wav" WAVE INDEX 01 00:00:00 TRACK 12 AUDIO TITLE "Carriage (unused) / The Dance / Bye Merrylegs " PERFORMER "Danny Elfman" FLAGS DCP INDEX 00 03:42:06FILE "12 - Carriage (unused) - The Dance - Bye Merrylegs.wav" WAVE INDEX 01 00:00:00 TRACK 13 AUDIO TITLE "Goodbye Joe" PERFORMER "Danny Elfman" FLAGS DCP INDEX 00 03:22:45FILE "13 - Goodbye Joe.wav" WAVE INDEX 01 00:00:00 TRACK 14 AUDIO TITLE "Ginger Snaps" PERFORMER "Danny Elfman" FLAGS DCP INDEX 00 01:17:74FILE "14 - Ginger Snaps.wav" WAVE INDEX 01 00:00:00 TRACK 15 AUDIO TITLE "Wound" PERFORMER "Danny Elfman" FLAGS DCP INDEX 00 03:20:46FILE "15 - Wound.wav" WAVE INDEX 01 00:00:00 TRACK 16 AUDIO TITLE "Wild Ride / Dream" PERFORMER "Danny Elfman" FLAGS DCP INDEX 00 00:52:34FILE "16 - Wild Ride - Dream.wav" WAVE INDEX 01 00:00:00 TRACK 17 AUDIO TITLE "Injury / Job" PERFORMER "Danny Elfman" FLAGS DCP INDEX 00 02:13:51FILE "17 - Injury - Job.wav" WAVE INDEX 01 00:00:00 TRACK 18 AUDIO TITLE "Is It Joe?" PERFORMER "Danny Elfman" FLAGS DCP INDEX 00 02:37:28FILE "18 - Is It Joe.wav" WAVE INDEX 01 00:00:00 TRACK 19 AUDIO TITLE "Black Jack (''Mommy'')" PERFORMER "Danny Elfman" FLAGS DCP INDEX 00 01:20:36FILE "19 - Black Jack (''''Mommy'''').wav" WAVE INDEX 01 00:00:00 TRACK 20 AUDIO TITLE "Nuns / In the Country" PERFORMER "Danny Elfman" FLAGS DCP INDEX 00 01:13:68FILE "20 - Nuns - In the Country.wav" WAVE INDEX 01 00:00:00 TRACK 21 AUDIO TITLE "Poor Ginger! (film version)" PERFORMER "Danny Elfman" FLAGS DCP INDEX 00 03:34:52FILE "21 - Poor Ginger! (film version).wav" WAVE INDEX 01 00:00:00 TRACK 22 AUDIO TITLE "Sick Jerry" PERFORMER "Danny Elfman" FLAGS DCP INDEX 00 03:50:13FILE "22 - Sick Jerry.wav" WAVE INDEX 01 00:00:00 TRACK 23 AUDIO TITLE "Bye Jerry" PERFORMER "Danny Elfman" FLAGS DCP INDEX 00 01:57:46FILE "23 - Bye Jerry.wav" WAVE INDEX 01 00:00:00 TRACK 24 AUDIO TITLE "Hard Times / Epilogue: Saved (''Memories'')" PERFORMER "Danny Elfman" FLAGS DCP INDEX 00 01:11:57FILE "24 - Hard Times - Epilogue- Saved (''''Memories'''').wav" WAVE INDEX 01 00:00:00 TRACK 25 AUDIO TITLE "End Credits" PERFORMER "Danny Elfman" FLAGS DCP INDEX 00 05:30:00FILE "25 - End Credits.wav" WAVE INDEX 01 00:00:00 TRACK 26 AUDIO TITLE "Street Violin (source)" PERFORMER "Danny Elfman" FLAGS DCP INDEX 00 01:38:01FILE "26 - Street Violin (source).wav" WAVE INDEX 01 00:00:00 TRACK 27 AUDIO TITLE "Bye Mum (alternate)" PERFORMER "Danny Elfman" FLAGS DCP INDEX 00 00:41:66FILE "27 - Bye Mum (alternate).wav" WAVE INDEX 01 00:00:00 TRACK 28 AUDIO TITLE "Job (alternate intro)" PERFORMER "Danny Elfman" FLAGS DCP INDEX 00 00:45:56FILE "28 - Job (alternate intro).wav" WAVE INDEX 01 00:00:00 TRACK 29 AUDIO TITLE "Is It Joe? (alternate)" PERFORMER "Danny Elfman" FLAGS DCP INDEX 00 01:07:32FILE "29 - Is It Joe (alternate).wav" WAVE INDEX 01 00:00:00 TRACK 30 AUDIO TITLE "Nuns (alternate)" PERFORMER "Danny Elfman" FLAGS DCP INDEX 00 01:20:38FILE "30 - Nuns (alternate).wav" WAVE INDEX 01 00:00:00 TRACK 31 AUDIO TITLE "Sick Jerry (alternate)" PERFORMER "Danny Elfman" FLAGS DCP INDEX 00 00:56:45FILE "31 - Sick Jerry (alternate).wav" WAVE INDEX 01 00:00:00 TRACK 32 AUDIO TITLE "Jump for Joy (album version)" PERFORMER "Danny Elfman" FLAGS DCP INDEX 00 01:57:46FILE "32 - Jump for Joy (album version).wav" WAVE INDEX 01 00:00:00 TRACK 33 AUDIO TITLE "Poor Ginger! (album version)" PERFORMER "Danny Elfman" FLAGS DCP INDEX 00 01:01:48FILE "33 - Poor Ginger! (album version).wav" WAVE INDEX 01 00:00:00


Трекер:  [ 14-Дек-2013 21:44 ]

  

Скачать .torrent

Размер .torrent файла 22 KB


Размер: 486 MB
Хэш (hash) релиза: d41d09c5e548f703e98781260e30610f39217917

bot

Топик был перенесен в форум Саундтреки к фильмам и мультфильмам (lossless)

Перенес Galfimbul

Хотите добавить комментарий к записи скачать торрент Чёрный красавец Black Beauty

!Обратная связь