Скачать порно через торрент Kanojo x Kanojo x Kanojo: San Shimai to no DokiDoki Kyoudou Seikatsu Три подружки: Бурная жизнь с тремя сестричками UnionPeer.org бесплатно онлайн HD качество

Скачать новое порно 2015, 2014 новинки через торрент UnionPeer.org

Порно торрент бесплатно ЮнионПир.орг

Если у вас наблюдаются проблемы со скриншотами, переходом по ссылками, скачиванием торрентов - проблемы в блокировщике рекламы AdBlock. #хорошегоДня!


Статистика раздачи
Размер:  10.25 GB   |    Зарегистрирован:  3 года 11 месяцев   |    .torrent скачан:  217 раз   |   
Раздают:  1  
   
Загрузка...
 
Автор Сообщение

LinGr

avatar LinGr


Kanojo x Kanojo x Kanojo: San Shimai to no DokiDoki Kyoudou Seikatsu
/ 彼女×彼女×彼女~三姉妹とのドキドキ共同生活~
Три подружки: Бурная жизнь с тремя сестричками

Год производства: 2009 г.
Жанр: Big tits, Group sex, Oral sex, Harem, Incest, Virgin
Серии: ep. 1-3 of 3
Продолжительность: 3x~28 min
Цензура: Есть

Озвучка: Японская (Оригинальная)

Режиссер: Murayama Kousuke
Студия: Milky Animation Label, Studio Eromatick, MS Pictures

Описание RUS: Обладателя главного члена в этой истории зовут Шики Харуоми. В его жизни много чего произошло, и теперь он будет жить в семье о-о-очень дальних родственников, Орифуши. Семья Орифуши состоит из трех сестричек, Нацуми, Акины и Мафую, которых главный герой видел в последний раз в далеком детстве. Родители девушек ушли в мир иной, и в наследство им достались небольшие сбережения отца, да небольшой магазинчик с мороженным, расположенный в довольно-безлюдном месте, и не приносящий особой прибыли. Харуоми в первый же день убеждается, что его «так называемые сестрички» выросли и превратились в жаждущих мужского внимания красоток, и, подобно петуху, попавшему в курятник, начинает всеми силами им «помогать»... ©hentaimag.ru

Описание ENG: Due to unavoidable circumstances, Haruomi is freeloading at his relatives'', the Orifushi sisters'', house. Since that day, his common everyday life has come to a screeching halt. The eldest sister is the gentle and maternal Natsumi. The second is Akina, a bright and cheerful girl for whom a smile is well-suited. The youngest sister is the bratty Mafuyu. The curtain rises on Haruomi''s new life in the company of these three beautiful sisters.

Информационные ссылки: AniDB - MAL - World Art - ХентайМаг

Качество видео: Blu-Ray
Формат видео: Blu-Ray Video
Видео кодек: H.264/AVC
Аудио кодек: PCM
Видео: 1920х1080, (16:9), 29,970 кадров/сек, 13,4 Мбит/сек, NTSC
Аудио: JAP, PCM, 2 канала, 1536 Кбит/сек, 48,0 КГц
Меню: Отсутствует (хз.)
Общее
Идентификатор : 0 (0x0)
Полное имя : D:\Hentai\Kanojo x Kanojo x Kanojo San Shimai to no DokiDoki Kyoudou Seikatsu (BDMV)\Kanojo x Kanojo x Kanojo San Shimai to no DokiDoki Kyoudou Seikatsu (BDMV)\Kanojo x Kanojo x Kanojo San Shimai to no DokiDoki Kyoudou Seikatsu\BDMV\STREAM\00002.m2ts
Формат : BDAV
Формат/Информация : Blu-ray Video
Размер файла : 8,85 Гбайт
Продолжительность : 1 ч. 21 м.
Режим общего битрейта : Переменный
Общий поток : 15,6 Мбит/сек
Максимальный общий битрейт : 48,0 Мбит/сек

Видео
Идентификатор : 4113 (0x1011)
Идентификатор меню : 1 (0x1)
Формат : AVC
Формат/Информация : Advanced Video Codec
Профиль формата : High@L4.1
Параметр CABAC формата : Да
Параметр ReFrames формата : 4 кадра
Идентификатор кодека : 27
Продолжительность : 1 ч. 21 м.
Вид битрейта : Переменный
Битрейт : 13,4 Мбит/сек
Максимальный битрейт : 35,0 Мбит/сек
Ширина : 1920 пикселей
Высота : 1080 пикселей
Соотношение сторон : 16:9
Частота кадров : 29,970 кадров/сек
Стандарт вещания : NTSC
Цветовое пространство : YUV
Субдискретизация насыщенности : 4:2:0
Битовая глубина : 8 бит
Тип развёртки : MBAFF
Бит/(Пиксели*Кадры) : 0.216
Размер потока : 7,62 Гбайт (86%)
Основные цвета : BT.709
Характеристики трансфера : BT.709
Коэффициенты матрицы : BT.709

Аудио
Идентификатор : 4352 (0x1100)
Идентификатор меню : 1 (0x1)
Формат : PCM
Параметр Endianness формата : Big
Параметр Sign формата : Signed
Режим смешивания : Blu-ray
Идентификатор кодека : 128
Продолжительность : 1 ч. 21 м.
Вид битрейта : Постоянный
Битрейт : 1536 Кбит/сек
Каналы : 2 канала
Расположение каналов : Front: L R
Частота : 48,0 КГц
Битовая глубина : 16 бит
Размер потока : 895 Мбайт (10%)


Трекер:  [ 02-Ноя-2013 19:11 ]

  

Скачать .torrent

Размер .torrent файла 31 KB


Размер: 10.25 GB
Хэш (hash) релиза: 2fd8cb41e3dd6e0485da1a625471bd7aac2ce863

Торренты, похожие на Kanojo x Kanojo x Kanojo: San Shimai to no DokiDoki Kyoudou Seikatsu Три подружки: Бурная жизнь с тремя сестричками скачать торрент

Форум Название Автор Размер S L Добавлен
Хентай | С цензурой ·· Kanojo x Kanojo x Kanojo: San Shimai to no DokiDoki Kyoudou Seikatsu / Три подружки: Бурная жизнь с тремя сестричками (Murayama Kousuke / Studio Eromatic) (ep. 1-3 of 3) [cen] [2009 г., Big tits, Blowjob, Bukkake, Harem, Oral sex, Virgin, DVD5] [jap] Galfimbul 80698920967.52 GB 0 0 1363034592

23:43

11-Мар-13

bot

Топик был перенесен в форум Хентай | С цензурой

Перенес LinGr

Хотите добавить комментарий к записи скачать торрент Kanojo x Kanojo x Kanojo: San Shimai to no DokiDoki Kyoudou Seikatsu Три подружки: Бурная жизнь с тремя сестричками

!Обратная связь