Bad Girls 6 6 UnionPeer.org HD

2015, 2014 UnionPeer.org

.

, , - AdBlock. #!


19.45 GB   |    :  3 11    |    .torrent :  101    |   
1  
   
...
 

LinGr

avatar LinGr


Bad Girls 6 6
: 2011 .
: United States
: All Sex, Gonzo, Interracial
: 01:56:00

: Robby D.
: Digital Playground

:
: Ally Ann, Bridgette B, Jesse Jane, Stoya & Tori Black. Mick Blue, Manuel Ferrara, Tommy Gunn, Mr. Marcus, Steve Holmes

: The scintillating Stoya takes it big and black in her first interracial sex scene with thick stud Mr Marcus. Lusty pounding and wild pumping on pale skin from her aggressive dark lover filling her up with loads of his creamy love juice. The beautiful Jesse Jane can't be outdone in her quest to get her hot lovers to grind and ride her like the naughty bad girl she is. These horny nasty sluts need to be spanked and taught sinful lessons for breaking all the good girl rules.
Stoya In Her First Interracial Scene!

:
. :
* Interactive Menus
* Chapter Selection
* Photo Gallery
* Trailers

HD : 1080p
: Blu-Ray
: Blu-Ray Video
: BDMV
: H.264/AVC
: AC3
: MPEG-4 AVC Video / ~19000 Mbps / 1920x1080p / 23,976 fps / 16:9
: Dolby Digital Audio 5.1 / 48000 Hz / 640 kbps
Disc Title: BAD_GIRLS_6_BD
Disc Size: 20884618230 bytes
Protection: AACS
BD-Java: No
BDInfo: 0.5.8

********************
PLAYLIST: 00002.MPLS
********************

<--- BEGIN FORUMS PASTE --->
Total Video
Title Codec Length Movie Size Disc Size Bitrate Bitrate Main Audio Track Secondary Audio Track
----- ------ ------- -------------- -------------- ------- ------- ------------------ ---------------------
00002.MPLS AVC 1:56:00 17940762624 20884618230 20,62 19,00 DD AC3 5.1 640Kbps
DISC INFO:

Disc Title: BAD_GIRLS_6_BD
Disc Size: 20884618230 bytes
Protection: AACS
BD-Java: No
BDInfo: 0.5.8

PLAYLIST REPORT:

Name: 00002.MPLS
Length: 1:56:00.995 (h:m:s.ms)
Size: 17940762624 bytes
Total Bitrate: 20,62 Mbps

VIDEO:

Codec Bitrate Description
----- ------- -----------
MPEG-4 AVC Video 18999 kbps 1080p / 23,976 fps / 16:9 / High Profile 4.1

AUDIO:

Codec Language Bitrate Description
----- -------- ------- -----------
Dolby Digital Audio English 640 kbps 5.1 / 48 kHz / 640 kbps / DN -4dB

FILES:

Name Time In Length Size Total Bitrate
---- ------- ------ ---- -------------
00002.M2TS 0:00:00.000 1:56:00.995 17940762624 20619

CHAPTERS:

Number Time In Length Avg Video Rate Max 1-Sec Rate Max 1-Sec Time Max 5-Sec Rate Max 5-Sec Time Max 10Sec Rate Max 10Sec Time Avg Frame Size Max Frame Size Max Frame Time
------ ------- ------ -------------- -------------- -------------- -------------- -------------- -------------- -------------- -------------- -------------- --------------
1 0:00:00.000 0:01:55.990 16647 kbps 28672 kbps 00:01:19.579 23477 kbps 00:00:45.336 20981 kbps 00:00:42.250 86757 bytes 442661 bytes 00:01:53.404
2 0:01:55.990 0:01:18.328 17060 kbps 29745 kbps 00:03:00.889 24506 kbps 00:02:59.262 24199 kbps 00:02:54.757 88943 bytes 313165 bytes 00:01:56.574
3 0:03:14.319 0:06:05.114 20364 kbps 31748 kbps 00:04:11.501 29661 kbps 00:04:11.042 27262 kbps 00:04:09.290 106166 bytes 310503 bytes 00:08:55.993
4 0:09:19.433 0:17:07.317 19127 kbps 32156 kbps 00:23:29.032 29585 kbps 00:23:27.823 27236 kbps 00:23:25.737 99718 bytes 297678 bytes 00:22:23.175
5 0:26:26.751 0:03:10.273 16149 kbps 31139 kbps 00:27:45.413 23639 kbps 00:28:21.991 22185 kbps 00:28:20.490 84196 bytes 356016 bytes 00:26:27.877
6 0:29:37.025 0:03:50.563 18113 kbps 26942 kbps 00:32:47.674 22784 kbps 00:32:43.670 21784 kbps 00:32:39.666 94432 bytes 281697 bytes 00:31:52.869
7 0:33:27.588 0:03:06.227 18774 kbps 31412 kbps 00:35:39.512 28864 kbps 00:35:37.718 27283 kbps 00:35:33.965 97879 bytes 314632 bytes 00:36:13.129
8 0:36:33.816 0:05:30.580 19124 kbps 29482 kbps 00:37:26.494 27054 kbps 00:40:54.869 26422 kbps 00:40:49.280 99705 bytes 279069 bytes 00:40:04.652
9 0:42:04.396 0:07:16.936 18677 kbps 31481 kbps 00:46:26.283 26231 kbps 00:42:10.694 25543 kbps 00:45:21.135 97372 bytes 292848 bytes 00:46:29.620
10 0:49:21.333 0:06:24.717 18045 kbps 31372 kbps 00:50:12.676 27939 kbps 00:55:41.046 25394 kbps 00:55:36.041 94077 bytes 295552 bytes 00:55:24.779
11 0:55:46.051 0:02:47.292 21138 kbps 27345 kbps 00:55:46.092 26293 kbps 00:56:36.935 24982 kbps 00:57:21.146 110202 bytes 272461 bytes 00:58:12.238
12 0:58:33.343 0:11:09.210 18992 kbps 31641 kbps 01:07:58.073 28914 kbps 01:03:09.076 27432 kbps 00:59:37.532 99014 bytes 305765 bytes 01:07:40.097
13 1:09:42.553 0:04:43.491 19486 kbps 31561 kbps 01:10:21.300 27777 kbps 01:10:17.004 25665 kbps 01:10:12.750 101591 bytes 336779 bytes 01:10:32.353
14 1:14:26.044 0:03:05.351 20298 kbps 31971 kbps 01:15:49.461 29261 kbps 01:15:45.791 26409 kbps 01:15:42.162 105826 bytes 297654 bytes 01:17:22.721
15 1:17:31.396 0:15:26.675 19563 kbps 31113 kbps 01:29:17.643 28895 kbps 01:25:49.185 27703 kbps 01:25:47.058 101994 bytes 345705 bytes 01:26:12.125
16 1:32:58.072 0:05:23.573 19804 kbps 32160 kbps 01:33:57.882 27679 kbps 01:33:56.922 24892 kbps 01:33:55.755 103247 bytes 392658 bytes 01:33:20.970
17 1:38:21.645 0:05:41.632 20614 kbps 31252 kbps 01:41:39.927 27606 kbps 01:41:29.625 25046 kbps 01:41:26.288 107470 bytes 324759 bytes 01:43:32.956
18 1:44:03.278 0:10:09.108 19877 kbps 31400 kbps 01:50:03.054 28927 kbps 01:49:59.092 27408 kbps 01:49:54.045 103631 bytes 309765 bytes 01:53:39.479
19 1:54:12.387 0:01:48.608 4747 kbps 11612 kbps 01:55:58.743 8392 kbps 01:54:12.387 6532 kbps 01:55:49.734 24759 bytes 287149 bytes 01:55:43.603

STREAM DIAGNOSTICS:

File PID Type Codec Language Seconds Bitrate Bytes Packets
---- --- ---- ----- -------- -------------- -------------- ------------- -----
00002.M2TS 4113 (0x1011) 0x1B AVC 6960,871 19000 16531912915 89945256
00002.M2TS 4352 (0x1100) 0x81 AC3 eng (English) 6960,871 640 556881920 3262980
<---- END FORUMS PASTE ---->

QUICK SUMMARY:

Disc Title: BAD_GIRLS_6_BD
Disc Size: 20884618230 bytes
Protection: AACS
BD-Java: No
Playlist: 00002.MPLS
Size: 17940762624 bytes
Length: 1:56:00.995
Total Bitrate: 20,62 Mbps
Video: MPEG-4 AVC Video / 18999 kbps / 1080p / 23,976 fps / 16:9 / High Profile 4.1
Audio: English / Dolby Digital Audio / 5.1 / 48 kHz / 640 kbps / DN -4dB

********************
PLAYLIST: 00007.MPLS
********************

<--- BEGIN FORUMS PASTE --->
Total Video
Title Codec Length Movie Size Disc Size Bitrate Bitrate Main Audio Track Secondary Audio Track
----- ------ ------- -------------- -------------- ------- ------- ------------------ ---------------------
00007.MPLS AVC 0:03:23 205959168 20884618230 8,09 6,99 DD AC3 5.1 640Kbps
DISC INFO:

Disc Title: BAD_GIRLS_6_BD
Disc Size: 20884618230 bytes
Protection: AACS
BD-Java: No
BDInfo: 0.5.8

PLAYLIST REPORT:

Name: 00007.MPLS
Length: 0:03:23.703 (h:m:s.ms)
Size: 205959168 bytes
Total Bitrate: 8,09 Mbps

VIDEO:

Codec Bitrate Description
----- ------- -----------
MPEG-4 AVC Video 6992 kbps 1080p / 23,976 fps / 16:9 / High Profile 4.1

AUDIO:

Codec Language Bitrate Description
----- -------- ------- -----------
Dolby Digital Audio English 640 kbps 5.1 / 48 kHz / 640 kbps / DN -4dB

FILES:

Name Time In Length Size Total Bitrate
---- ------- ------ ---- -------------
00007.M2TS 0:00:00.000 0:03:23.703 205959168 8089

CHAPTERS:

Number Time In Length Avg Video Rate Max 1-Sec Rate Max 1-Sec Time Max 5-Sec Rate Max 5-Sec Time Max 10Sec Rate Max 10Sec Time Avg Frame Size Max Frame Size Max Frame Time
------ ------- ------ -------------- -------------- -------------- -------------- -------------- -------------- -------------- -------------- -------------- --------------
1 0:00:00.000 0:03:23.703 6992 kbps 16438 kbps 00:00:35.243 12714 kbps 00:02:25.603 11620 kbps 00:00:16.015 36451 bytes 294859 bytes 00:00:55.513

STREAM DIAGNOSTICS:

File PID Type Codec Language Seconds Bitrate Bytes Packets
---- --- ---- ----- -------- -------------- -------------- ------------- -----
00007.M2TS 4113 (0x1011) 0x1B AVC 203,578 6996 178025491 970357
00007.M2TS 4352 (0x1100) 0x81 AC3 eng (English) 203,578 640 16296960 95490
<---- END FORUMS PASTE ---->

QUICK SUMMARY:

Disc Title: BAD_GIRLS_6_BD
Disc Size: 20884618230 bytes
Protection: AACS
BD-Java: No
Playlist: 00007.MPLS
Size: 205959168 bytes
Length: 0:03:23.703
Total Bitrate: 8,09 Mbps
Video: MPEG-4 AVC Video / 6992 kbps / 1080p / 23,976 fps / 16:9 / High Profile 4.1
Audio: English / Dolby Digital Audio / 5.1 / 48 kHz / 640 kbps / DN -4dB

********************
PLAYLIST: 00003.MPLS
********************

<--- BEGIN FORUMS PASTE --->
Total Video
Title Codec Length Movie Size Disc Size Bitrate Bitrate Main Audio Track Secondary Audio Track
----- ------ ------- -------------- -------------- ------- ------- ------------------ ---------------------
00003.MPLS AVC 0:03:20 117946368 20884618230 4,71 4,44
DISC INFO:

Disc Title: BAD_GIRLS_6_BD
Disc Size: 20884618230 bytes
Protection: AACS
BD-Java: No
BDInfo: 0.5.8

PLAYLIST REPORT:

Name: 00003.MPLS
Length: 0:03:20.200 (h:m:s.ms)
Size: 117946368 bytes
Total Bitrate: 4,71 Mbps

VIDEO:

Codec Bitrate Description
----- ------- -----------
MPEG-4 AVC Video 4442 kbps 1080p / 23,976 fps / 16:9 / High Profile 4.1

FILES:

Name Time In Length Size Total Bitrate
---- ------- ------ ---- -------------
00003.M2TS 0:00:00.000 0:03:20.200 117946368 4713

CHAPTERS:

Number Time In Length Avg Video Rate Max 1-Sec Rate Max 1-Sec Time Max 5-Sec Rate Max 5-Sec Time Max 10Sec Rate Max 10Sec Time Avg Frame Size Max Frame Size Max Frame Time
------ ------- ------ -------------- -------------- -------------- -------------- -------------- -------------- -------------- -------------- -------------- --------------
1 0:00:00.000 0:00:05.004 3423 kbps 4624 kbps 00:00:01.251 0 kbps 00:00:00.000 0 kbps 00:00:00.000 17701 bytes 277810 bytes 00:00:02.252
2 0:00:05.004 0:00:05.004 3473 kbps 6197 kbps 00:00:08.967 3473 kbps 00:00:05.004 0 kbps 00:00:00.000 18108 bytes 263240 bytes 00:00:08.258
3 0:00:10.009 0:00:05.004 3682 kbps 5233 kbps 00:00:10.260 3682 kbps 00:00:10.009 0 kbps 00:00:00.000 19195 bytes 313802 bytes 00:00:11.261
4 0:00:15.014 0:00:05.004 3343 kbps 5061 kbps 00:00:15.724 3343 kbps 00:00:15.014 0 kbps 00:00:00.000 17430 bytes 307763 bytes 00:00:16.516
5 0:00:20.019 0:00:05.004 3203 kbps 5764 kbps 00:00:23.982 3203 kbps 00:00:20.019 0 kbps 00:00:00.000 16697 bytes 239652 bytes 00:00:24.024
6 0:00:25.024 0:00:05.004 4298 kbps 8397 kbps 00:00:29.028 4298 kbps 00:00:25.024 0 kbps 00:00:00.000 22406 bytes 727075 bytes 00:00:30.029
7 0:00:30.029 0:00:05.004 9374 kbps 13675 kbps 00:00:32.240 9374 kbps 00:00:30.029 0 kbps 00:00:00.000 48872 bytes 727076 bytes 00:00:32.282
8 0:00:35.034 0:00:05.004 3542 kbps 5500 kbps 00:00:35.744 3542 kbps 00:00:35.034 0 kbps 00:00:00.000 18468 bytes 335821 bytes 00:00:35.785
9 0:00:40.039 0:00:05.004 2645 kbps 4577 kbps 00:00:44.002 2645 kbps 00:00:40.039 0 kbps 00:00:00.000 13789 bytes 198927 bytes 00:00:40.290
10 0:00:45.044 0:00:05.004 2936 kbps 4311 kbps 00:00:49.048 2936 kbps 00:00:45.044 0 kbps 00:00:00.000 15309 bytes 283015 bytes 00:00:50.049
11 0:00:50.049 0:00:05.004 3208 kbps 4670 kbps 00:00:50.759 3208 kbps 00:00:50.049 0 kbps 00:00:00.000 16728 bytes 283015 bytes 00:00:50.800
12 0:00:55.054 0:00:05.004 3874 kbps 6577 kbps 00:00:59.017 3874 kbps 00:00:55.054 0 kbps 00:00:00.000 20197 bytes 303904 bytes 00:00:56.056
13 0:01:00.059 0:00:05.005 3348 kbps 4879 kbps 00:01:00.310 3348 kbps 00:01:00.060 0 kbps 00:00:00.000 17454 bytes 290794 bytes 00:01:00.560
14 0:01:05.065 0:00:05.004 2753 kbps 3985 kbps 00:01:08.985 2753 kbps 00:01:05.065 0 kbps 00:00:00.000 14353 bytes 251881 bytes 00:01:09.986
15 0:01:10.070 0:00:05.004 4361 kbps 6922 kbps 00:01:14.032 4361 kbps 00:01:10.070 0 kbps 00:00:00.000 22735 bytes 353523 bytes 00:01:10.320
16 0:01:15.075 0:00:05.004 2663 kbps 3856 kbps 00:01:15.325 2663 kbps 00:01:15.075 0 kbps 00:00:00.000 13883 bytes 227550 bytes 00:01:15.575
17 0:01:20.080 0:00:05.004 2359 kbps 3728 kbps 00:01:24.084 2359 kbps 00:01:20.080 0 kbps 00:00:00.000 12299 bytes 262562 bytes 00:01:25.001
18 0:01:25.085 0:00:05.004 4701 kbps 8102 kbps 00:01:29.047 4701 kbps 00:01:25.085 0 kbps 00:00:00.000 24508 bytes 366342 bytes 00:01:25.335
19 0:01:30.090 0:00:05.004 4071 kbps 5805 kbps 00:01:30.340 4071 kbps 00:01:30.090 0 kbps 00:00:00.000 21225 bytes 349105 bytes 00:01:30.590
20 0:01:35.095 0:00:05.004 4452 kbps 8298 kbps 00:01:39.099 4452 kbps 00:01:35.095 0 kbps 00:00:00.000 23210 bytes 686404 bytes 00:01:40.100
21 0:01:40.100 0:00:05.004 9026 kbps 12993 kbps 00:01:40.809 9026 kbps 00:01:40.100 0 kbps 00:00:00.000 47058 bytes 686404 bytes 00:01:40.850
22 0:01:45.105 0:00:05.004 4089 kbps 6105 kbps 00:01:45.814 4089 kbps 00:01:45.105 0 kbps 00:00:00.000 21319 bytes 372682 bytes 00:01:45.855
23 0:01:50.110 0:00:05.004 4039 kbps 6706 kbps 00:01:54.072 4039 kbps 00:01:50.110 0 kbps 00:00:00.000 21056 bytes 320043 bytes 00:01:50.360
24 0:01:55.115 0:00:05.004 3873 kbps 7775 kbps 00:01:59.119 3873 kbps 00:01:55.115 0 kbps 00:00:00.000 20190 bytes 686098 bytes 00:02:00.120
25 0:02:00.120 0:00:05.004 8443 kbps 12455 kbps 00:02:00.829 8443 kbps 00:02:00.120 0 kbps 00:00:00.000 44019 bytes 686098 bytes 00:02:00.870
26 0:02:05.125 0:00:05.004 3125 kbps 4617 kbps 00:02:05.834 3125 kbps 00:02:05.125 0 kbps 00:00:00.000 16293 bytes 279867 bytes 00:02:05.875
27 0:02:10.130 0:00:05.004 4313 kbps 7816 kbps 00:02:14.133 4313 kbps 00:02:10.130 0 kbps 00:00:00.000 22485 bytes 688008 bytes 00:02:15.135
28 0:02:15.135 0:00:05.004 7799 kbps 11765 kbps 00:02:15.844 7799 kbps 00:02:15.135 0 kbps 00:00:00.000 40661 bytes 688008 bytes 00:02:15.885
29 0:02:20.139 0:00:05.004 4005 kbps 8075 kbps 00:02:24.143 4005 kbps 00:02:20.139 0 kbps 00:00:00.000 20882 bytes 708888 bytes 00:02:25.144
30 0:02:25.144 0:00:05.004 8045 kbps 12067 kbps 00:02:25.854 8045 kbps 00:02:25.144 0 kbps 00:00:00.000 41943 bytes 708888 bytes 00:02:25.895
31 0:02:30.149 0:00:05.004 3709 kbps 5493 kbps 00:02:30.859 3709 kbps 00:02:30.149 0 kbps 00:00:00.000 19336 bytes 335053 bytes 00:02:30.900
32 0:02:35.154 0:00:05.004 3990 kbps 6887 kbps 00:02:39.117 3990 kbps 00:02:35.154 0 kbps 00:00:00.000 20801 bytes 309782 bytes 00:02:35.405
33 0:02:40.159 0:00:05.004 4335 kbps 8257 kbps 00:02:44.163 4335 kbps 00:02:40.159 0 kbps 00:00:00.000 22600 bytes 701223 bytes 00:02:45.164
34 0:02:45.164 0:00:05.004 7870 kbps 11979 kbps 00:02:45.874 7870 kbps 00:02:45.164 0 kbps 00:00:00.000 41032 bytes 701223 bytes 00:02:45.915
35 0:02:50.169 0:00:05.004 2858 kbps 4121 kbps 00:02:50.879 2858 kbps 00:02:50.169 0 kbps 00:00:00.000 14902 bytes 248745 bytes 00:02:50.920
36 0:02:55.174 0:00:05.004 4599 kbps 8018 kbps 00:02:59.178 4599 kbps 00:02:55.174 0 kbps 00:00:00.000 23979 bytes 687278 bytes 00:03:00.179
37 0:03:00.179 0:00:05.004 8020 kbps 11983 kbps 00:03:00.889 8020 kbps 00:03:00.179 0 kbps 00:00:00.000 41813 bytes 687278 bytes 00:03:00.930
38 0:03:05.184 0:00:05.005 3239 kbps 4819 kbps 00:03:08.146 3239 kbps 00:03:05.185 0 kbps 00:00:00.000 16889 bytes 292814 bytes 00:03:08.188
39 0:03:10.190 0:00:05.004 3380 kbps 6031 kbps 00:03:14.152 3380 kbps 00:03:10.190 0 kbps 00:00:00.000 17623 bytes 256472 bytes 00:03:10.440
40 0:03:15.195 0:00:05.004 3222 kbps 5280 kbps 00:03:15.445 0 kbps 00:00:00.000 0 kbps 00:00:00.000 16937 bytes 316153 bytes 00:03:15.695

STREAM DIAGNOSTICS:

File PID Type Codec Language Seconds Bitrate Bytes Packets
---- --- ---- ----- -------- -------------- -------------- ------------- -----
00003.M2TS 4113 (0x1011) 0x1B AVC 200,075 4445 111166881 607566
<---- END FORUMS PASTE ---->

QUICK SUMMARY:

Disc Title: BAD_GIRLS_6_BD
Disc Size: 20884618230 bytes
Protection: AACS
BD-Java: No
Playlist: 00003.MPLS
Size: 117946368 bytes
Length: 0:03:20.200
Total Bitrate: 4,71 Mbps
Video: MPEG-4 AVC Video / 4442 kbps / 1080p / 23,976 fps / 16:9 / High Profile 4.1

********************
PLAYLIST: 00017.MPLS
********************

<--- BEGIN FORUMS PASTE --->
Total Video
Title Codec Length Movie Size Disc Size Bitrate Bitrate Main Audio Track Secondary Audio Track
----- ------ ------- -------------- -------------- ------- ------- ------------------ ---------------------
00017.MPLS AVC 0:03:02 202758144 20884618230 8,90 8,00 DD AC3 5.1 448Kbps
DISC INFO:

Disc Title: BAD_GIRLS_6_BD
Disc Size: 20884618230 bytes
Protection: AACS
BD-Java: No
BDInfo: 0.5.8

PLAYLIST REPORT:

Name: 00017.MPLS
Length: 0:03:02.265 (h:m:s.ms)
Size: 202758144 bytes
Total Bitrate: 8,90 Mbps

VIDEO:

Codec Bitrate Description
----- ------- -----------
MPEG-4 AVC Video 7999 kbps 1080p / 23,976 fps / 16:9 / High Profile 4.1

AUDIO:

Codec Language Bitrate Description
----- -------- ------- -----------
Dolby Digital Audio English 448 kbps 5.1 / 48 kHz / 448 kbps / DN -4dB

FILES:

Name Time In Length Size Total Bitrate
---- ------- ------ ---- -------------
00020.M2TS 0:00:00.000 0:03:02.265 202758144 8899

CHAPTERS:

Number Time In Length Avg Video Rate Max 1-Sec Rate Max 1-Sec Time Max 5-Sec Rate Max 5-Sec Time Max 10Sec Rate Max 10Sec Time Avg Frame Size Max Frame Size Max Frame Time
------ ------- ------ -------------- -------------- -------------- -------------- -------------- -------------- -------------- -------------- -------------- --------------
1 0:00:00.000 0:03:01.264 8042 kbps 19176 kbps 00:00:01.084 11230 kbps 00:01:32.383 10572 kbps 00:01:47.524 41920 bytes 588990 bytes 00:01:23.875
2 0:03:01.264 0:00:01.000 76 kbps 0 kbps 00:00:00.000 0 kbps 00:00:00.000 0 kbps 00:00:00.000 412 bytes 2431 bytes 00:03:01.306

STREAM DIAGNOSTICS:

File PID Type Codec Language Seconds Bitrate Bytes Packets
---- --- ---- ----- -------- -------------- -------------- ------------- -----
00020.M2TS 4113 (0x1011) 0x1B AVC 182,182 8002 182235331 992922
00020.M2TS 4352 (0x1100) 0x81 AC3 eng (English) 182,182 448 10207232 56960
<---- END FORUMS PASTE ---->

QUICK SUMMARY:

Disc Title: BAD_GIRLS_6_BD
Disc Size: 20884618230 bytes
Protection: AACS
BD-Java: No
Playlist: 00017.MPLS
Size: 202758144 bytes
Length: 0:03:02.265
Total Bitrate: 8,90 Mbps
Video: MPEG-4 AVC Video / 7999 kbps / 1080p / 23,976 fps / 16:9 / High Profile 4.1
Audio: English / Dolby Digital Audio / 5.1 / 48 kHz / 448 kbps / DN -4dB

********************
PLAYLIST: 00013.MPLS
********************

<--- BEGIN FORUMS PASTE --->
Total Video
Title Codec Length Movie Size Disc Size Bitrate Bitrate Main Audio Track Secondary Audio Track
----- ------ ------- -------------- -------------- ------- ------- ------------------ ---------------------
00013.MPLS AVC 0:02:38 155486208 20884618230 7,85 6,99 DD AC3 5.1 448Kbps
DISC INFO:

Disc Title: BAD_GIRLS_6_BD
Disc Size: 20884618230 bytes
Protection: AACS
BD-Java: No
BDInfo: 0.5.8

PLAYLIST REPORT:

Name: 00013.MPLS
Length: 0:02:38.533 (h:m:s.ms)
Size: 155486208 bytes
Total Bitrate: 7,85 Mbps

VIDEO:

Codec Bitrate Description
----- ------- -----------
MPEG-4 AVC Video 6989 kbps 1080p / 23,976 fps / 16:9 / High Profile 4.1

AUDIO:

Codec Language Bitrate Description
----- -------- ------- -----------
Dolby Digital Audio English 448 kbps 5.1 / 48 kHz / 448 kbps / DN -4dB

FILES:

Name Time In Length Size Total Bitrate
---- ------- ------ ---- -------------
00015.M2TS 0:00:00.000 0:02:38.533 155486208 7846

CHAPTERS:

Number Time In Length Avg Video Rate Max 1-Sec Rate Max 1-Sec Time Max 5-Sec Rate Max 5-Sec Time Max 10Sec Rate Max 10Sec Time Avg Frame Size Max Frame Size Max Frame Time
------ ------- ------ -------------- -------------- -------------- -------------- -------------- -------------- -------------- -------------- -------------- --------------
1 0:00:00.000 0:02:37.490 7035 kbps 19061 kbps 00:01:06.274 12372 kbps 00:02:04.791 10642 kbps 00:01:06.066 36666 bytes 317351 bytes 00:00:38.872
2 0:02:37.490 0:00:01.042 75 kbps 78 kbps 00:02:37.490 0 kbps 00:00:00.000 0 kbps 00:00:00.000 408 bytes 2430 bytes 00:02:38.449

STREAM DIAGNOSTICS:

File PID Type Codec Language Seconds Bitrate Bytes Packets
---- --- ---- ----- -------- -------------- -------------- ------------- -----
00015.M2TS 4113 (0x1011) 0x1B AVC 158,450 6993 138498866 754939
00015.M2TS 4352 (0x1100) 0x81 AC3 eng (English) 158,450 448 8875776 49530
<---- END FORUMS PASTE ---->

QUICK SUMMARY:

Disc Title: BAD_GIRLS_6_BD
Disc Size: 20884618230 bytes
Protection: AACS
BD-Java: No
Playlist: 00013.MPLS
Size: 155486208 bytes
Length: 0:02:38.533
Total Bitrate: 7,85 Mbps
Video: MPEG-4 AVC Video / 6989 kbps / 1080p / 23,976 fps / 16:9 / High Profile 4.1
Audio: English / Dolby Digital Audio / 5.1 / 48 kHz / 448 kbps / DN -4dB

********************
PLAYLIST: 00006.MPLS
********************

<--- BEGIN FORUMS PASTE --->
Total Video
Title Codec Length Movie Size Disc Size Bitrate Bitrate Main Audio Track Secondary Audio Track
----- ------ ------- -------------- -------------- ------- ------- ------------------ ---------------------
00006.MPLS AVC 0:02:32 173666304 20884618230 9,13 7,99 DD AC3 5.1 640Kbps
DISC INFO:

Disc Title: BAD_GIRLS_6_BD
Disc Size: 20884618230 bytes
Protection: AACS
BD-Java: No
BDInfo: 0.5.8

PLAYLIST REPORT:

Name: 00006.MPLS
Length: 0:02:32.193 (h:m:s.ms)
Size: 173666304 bytes
Total Bitrate: 9,13 Mbps

VIDEO:

Codec Bitrate Description
----- ------- -----------
MPEG-4 AVC Video 7988 kbps 1080p / 23,976 fps / 16:9 / High Profile 4.1

AUDIO:

Codec Language Bitrate Description
----- -------- ------- -----------
Dolby Digital Audio English 640 kbps 5.1 / 48 kHz / 640 kbps / DN -4dB

FILES:

Name Time In Length Size Total Bitrate
---- ------- ------ ---- -------------
00006.M2TS 0:00:00.000 0:02:32.193 173666304 9129

CHAPTERS:

Number Time In Length Avg Video Rate Max 1-Sec Rate Max 1-Sec Time Max 5-Sec Rate Max 5-Sec Time Max 10Sec Rate Max 10Sec Time Avg Frame Size Max Frame Size Max Frame Time
------ ------- ------ -------------- -------------- -------------- -------------- -------------- -------------- -------------- -------------- -------------- --------------
1 0:00:00.000 0:02:31.192 8040 kbps 19680 kbps 00:01:56.241 14272 kbps 00:01:54.697 12285 kbps 00:01:50.568 41907 bytes 308301 bytes 00:01:46.981
2 0:02:31.192 0:00:01.000 59 kbps 0 kbps 00:00:00.000 0 kbps 00:00:00.000 0 kbps 00:00:00.000 320 bytes 325 bytes 00:02:32.152

STREAM DIAGNOSTICS:

File PID Type Codec Language Seconds Bitrate Bytes Packets
---- --- ---- ----- -------- -------------- -------------- ------------- -----
00006.M2TS 4113 (0x1011) 0x1B AVC 152,069 7994 151963541 828029
00006.M2TS 4352 (0x1100) 0x81 AC3 eng (English) 152,069 641 12177920 71355
<---- END FORUMS PASTE ---->

QUICK SUMMARY:

Disc Title: BAD_GIRLS_6_BD
Disc Size: 20884618230 bytes
Protection: AACS
BD-Java: No
Playlist: 00006.MPLS
Size: 173666304 bytes
Length: 0:02:32.193
Total Bitrate: 9,13 Mbps
Video: MPEG-4 AVC Video / 7988 kbps / 1080p / 23,976 fps / 16:9 / High Profile 4.1
Audio: English / Dolby Digital Audio / 5.1 / 48 kHz / 640 kbps / DN -4dB

********************
PLAYLIST: 00018.MPLS
********************

<--- BEGIN FORUMS PASTE --->
Total Video
Title Codec Length Movie Size Disc Size Bitrate Bitrate Main Audio Track Secondary Audio Track
----- ------ ------- -------------- -------------- ------- ------- ------------------ ---------------------
00018.MPLS AVC 0:02:29 166373376 20884618230 8,90 8,00 DD AC3 5.1 448Kbps
DISC INFO:

Disc Title: BAD_GIRLS_6_BD
Disc Size: 20884618230 bytes
Protection: AACS
BD-Java: No
BDInfo: 0.5.8

PLAYLIST REPORT:

Name: 00018.MPLS
Length: 0:02:29.482 (h:m:s.ms)
Size: 166373376 bytes
Total Bitrate: 8,90 Mbps

VIDEO:

Codec Bitrate Description
----- ------- -----------
MPEG-4 AVC Video 8003 kbps 1080p / 23,976 fps / 16:9 / High Profile 4.1

AUDIO:

Codec Language Bitrate Description
----- -------- ------- -----------
Dolby Digital Audio English 448 kbps 5.1 / 48 kHz / 448 kbps / DN -4dB

FILES:

Name Time In Length Size Total Bitrate
---- ------- ------ ---- -------------
00021.M2TS 0:00:00.000 0:02:29.482 166373376 8904

CHAPTERS:

Number Time In Length Avg Video Rate Max 1-Sec Rate Max 1-Sec Time Max 5-Sec Rate Max 5-Sec Time Max 10Sec Rate Max 10Sec Time Avg Frame Size Max Frame Size Max Frame Time
------ ------- ------ -------------- -------------- -------------- -------------- -------------- -------------- -------------- -------------- -------------- --------------
1 0:00:00.000 0:02:28.481 8056 kbps 20481 kbps 00:01:15.950 14862 kbps 00:01:11.821 12153 kbps 00:01:07.025 41989 bytes 271637 bytes 00:00:32.949
2 0:02:28.481 0:00:01.000 76 kbps 0 kbps 00:00:00.000 0 kbps 00:00:00.000 0 kbps 00:00:00.000 416 bytes 2430 bytes 00:02:28.690

STREAM DIAGNOSTICS:

File PID Type Codec Language Seconds Bitrate Bytes Packets
---- --- ---- ----- -------- -------------- -------------- ------------- -----
00021.M2TS 4113 (0x1011) 0x1B AVC 149,316 8012 149533542 814764
00021.M2TS 4352 (0x1100) 0x81 AC3 eng (English) 149,316 449 8372224 46720
<---- END FORUMS PASTE ---->

QUICK SUMMARY:

Disc Title: BAD_GIRLS_6_BD
Disc Size: 20884618230 bytes
Protection: AACS
BD-Java: No
Playlist: 00018.MPLS
Size: 166373376 bytes
Length: 0:02:29.482
Total Bitrate: 8,90 Mbps
Video: MPEG-4 AVC Video / 8003 kbps / 1080p / 23,976 fps / 16:9 / High Profile 4.1
Audio: English / Dolby Digital Audio / 5.1 / 48 kHz / 448 kbps / DN -4dB

********************
PLAYLIST: 00012.MPLS
********************

<--- BEGIN FORUMS PASTE --->
Total Video
Title Codec Length Movie Size Disc Size Bitrate Bitrate Main Audio Track Secondary Audio Track
----- ------ ------- -------------- -------------- ------- ------- ------------------ ---------------------
00012.MPLS AVC 0:02:24 161421312 20884618230 8,91 8,01 DD AC3 5.1 448Kbps
DISC INFO:

Disc Title: BAD_GIRLS_6_BD
Disc Size: 20884618230 bytes
Protection: AACS
BD-Java: No
BDInfo: 0.5.8

PLAYLIST REPORT:

Name: 00012.MPLS
Length: 0:02:24.936 (h:m:s.ms)
Size: 161421312 bytes
Total Bitrate: 8,91 Mbps

VIDEO:

Codec Bitrate Description
----- ------- -----------
MPEG-4 AVC Video 8009 kbps 1080p / 23,976 fps / 16:9 / High Profile 4.1

AUDIO:

Codec Language Bitrate Description
----- -------- ------- -----------
Dolby Digital Audio English 448 kbps 5.1 / 48 kHz / 448 kbps / DN -4dB

FILES:

Name Time In Length Size Total Bitrate
---- ------- ------ ---- -------------
00014.M2TS 0:00:00.000 0:02:24.936 161421312 8910

CHAPTERS:

Number Time In Length Avg Video Rate Max 1-Sec Rate Max 1-Sec Time Max 5-Sec Rate Max 5-Sec Time Max 10Sec Rate Max 10Sec Time Avg Frame Size Max Frame Size Max Frame Time
------ ------- ------ -------------- -------------- -------------- -------------- -------------- -------------- -------------- -------------- -------------- --------------
1 0:00:00.000 0:02:23.935 8064 kbps 17488 kbps 00:00:06.840 12569 kbps 00:01:53.279 12169 kbps 00:01:48.274 42030 bytes 201632 bytes 00:00:23.273
2 0:02:23.935 0:00:01.000 76 kbps 0 kbps 00:00:00.000 0 kbps 00:00:00.000 0 kbps 00:00:00.000 416 bytes 2513 bytes 00:02:24.060

STREAM DIAGNOSTICS:

File PID Type Codec Language Seconds Bitrate Bytes Packets
---- --- ---- ----- -------- -------------- -------------- ------------- -----
00014.M2TS 4113 (0x1011) 0x1B AVC 144,811 8016 145096281 790547
00014.M2TS 4352 (0x1100) 0x81 AC3 eng (English) 144,811 448 8117760 45300
<---- END FORUMS PASTE ---->

QUICK SUMMARY:

Disc Title: BAD_GIRLS_6_BD
Disc Size: 20884618230 bytes
Protection: AACS
BD-Java: No
Playlist: 00012.MPLS
Size: 161421312 bytes
Length: 0:02:24.936
Total Bitrate: 8,91 Mbps
Video: MPEG-4 AVC Video / 8009 kbps / 1080p / 23,976 fps / 16:9 / High Profile 4.1
Audio: English / Dolby Digital Audio / 5.1 / 48 kHz / 448 kbps / DN -4dB

********************
PLAYLIST: 00010.MPLS
********************

<--- BEGIN FORUMS PASTE --->
Total Video
Title Codec Length Movie Size Disc Size Bitrate Bitrate Main Audio Track Secondary Audio Track
----- ------ ------- -------------- -------------- ------- ------- ------------------ ---------------------
00010.MPLS AVC 0:02:23 159891456 20884618230 8,89 7,99 DD AC3 5.1 448Kbps
DISC INFO:

Disc Title: BAD_GIRLS_6_BD
Disc Size: 20884618230 bytes
Protection: AACS
BD-Java: No
BDInfo: 0.5.8

PLAYLIST REPORT:

Name: 00010.MPLS
Length: 0:02:23.893 (h:m:s.ms)
Size: 159891456 bytes
Total Bitrate: 8,89 Mbps

VIDEO:

Codec Bitrate Description
----- ------- -----------
MPEG-4 AVC Video 7989 kbps 1080p / 23,976 fps / 16:9 / High Profile 4.1

AUDIO:

Codec Language Bitrate Description
----- -------- ------- -----------
Dolby Digital Audio English 448 kbps 5.1 / 48 kHz / 448 kbps / DN -4dB

FILES:

Name Time In Length Size Total Bitrate
---- ------- ------ ---- -------------
00010.M2TS 0:00:00.000 0:02:23.893 159891456 8889

CHAPTERS:

Number Time In Length Avg Video Rate Max 1-Sec Rate Max 1-Sec Time Max 5-Sec Rate Max 5-Sec Time Max 10Sec Rate Max 10Sec Time Avg Frame Size Max Frame Size Max Frame Time
------ ------- ------ -------------- -------------- -------------- -------------- -------------- -------------- -------------- -------------- -------------- --------------
1 0:00:00.000 0:02:22.892 8045 kbps 18855 kbps 00:00:24.315 14505 kbps 00:00:05.797 13428 kbps 00:00:19.352 41928 bytes 197951 bytes 00:00:08.008
2 0:02:22.892 0:00:01.000 59 kbps 0 kbps 00:00:00.000 0 kbps 00:00:00.000 0 kbps 00:00:00.000 319 bytes 1854 bytes 00:02:23.518

STREAM DIAGNOSTICS:

File PID Type Codec Language Seconds Bitrate Bytes Packets
---- --- ---- ----- -------- -------------- -------------- ------------- -----
00010.M2TS 4113 (0x1011) 0x1B AVC 143,769 7996 143696238 782954
00010.M2TS 4352 (0x1100) 0x81 AC3 eng (English) 143,769 448 8058624 44970
<---- END FORUMS PASTE ---->

QUICK SUMMARY:

Disc Title: BAD_GIRLS_6_BD
Disc Size: 20884618230 bytes
Protection: AACS
BD-Java: No
Playlist: 00010.MPLS
Size: 159891456 bytes
Length: 0:02:23.893
Total Bitrate: 8,89 Mbps
Video: MPEG-4 AVC Video / 7989 kbps / 1080p / 23,976 fps / 16:9 / High Profile 4.1
Audio: English / Dolby Digital Audio / 5.1 / 48 kHz / 448 kbps / DN -4dB

********************
PLAYLIST: 00015.MPLS
********************

<--- BEGIN FORUMS PASTE --->
Total Video
Title Codec Length Movie Size Disc Size Bitrate Bitrate Main Audio Track Secondary Audio Track
----- ------ ------- -------------- -------------- ------- ------- ------------------ ---------------------
00015.MPLS AVC 0:02:22 158674944 20884618230 8,90 8,00 DD AC3 5.1 448Kbps
DISC INFO:

Disc Title: BAD_GIRLS_6_BD
Disc Size: 20884618230 bytes
Protection: AACS
BD-Java: No
BDInfo: 0.5.8

PLAYLIST REPORT:

Name: 00015.MPLS
Length: 0:02:22.559 (h:m:s.ms)
Size: 158674944 bytes
Total Bitrate: 8,90 Mbps

VIDEO:

Codec Bitrate Description
----- ------- -----------
MPEG-4 AVC Video 8003 kbps 1080p / 23,976 fps / 16:9 / High Profile 4.1

AUDIO:

Codec Language Bitrate Description
----- -------- ------- -----------
Dolby Digital Audio English 448 kbps 5.1 / 48 kHz / 448 kbps / DN -4dB

FILES:

Name Time In Length Size Total Bitrate
---- ------- ------ ---- -------------
00018.M2TS 0:00:00.000 0:02:22.559 158674944 8904

CHAPTERS:

Number Time In Length Avg Video Rate Max 1-Sec Rate Max 1-Sec Time Max 5-Sec Rate Max 5-Sec Time Max 10Sec Rate Max 10Sec Time Avg Frame Size Max Frame Size Max Frame Time
------ ------- ------ -------------- -------------- -------------- -------------- -------------- -------------- -------------- -------------- -------------- --------------
1 0:00:00.000 0:02:21.558 8059 kbps 20186 kbps 00:00:10.593 18078 kbps 00:00:06.589 15034 kbps 00:00:06.798 42005 bytes 334652 bytes 00:00:23.189
2 0:02:21.558 0:00:01.000 59 kbps 0 kbps 00:00:00.000 0 kbps 00:00:00.000 0 kbps 00:00:00.000 320 bytes 325 bytes 00:02:22.517

STREAM DIAGNOSTICS:

File PID Type Codec Language Seconds Bitrate Bytes Packets
---- --- ---- ----- -------- -------------- -------------- ------------- -----
00018.M2TS 4113 (0x1011) 0x1B AVC 142,434 8010 142615893 777059
00018.M2TS 4352 (0x1100) 0x81 AC3 eng (English) 142,434 448 7983360 44550
<---- END FORUMS PASTE ---->

QUICK SUMMARY:

Disc Title: BAD_GIRLS_6_BD
Disc Size: 20884618230 bytes
Protection: AACS
BD-Java: No
Playlist: 00015.MPLS
Size: 158674944 bytes
Length: 0:02:22.559
Total Bitrate: 8,90 Mbps
Video: MPEG-4 AVC Video / 8003 kbps / 1080p / 23,976 fps / 16:9 / High Profile 4.1
Audio: English / Dolby Digital Audio / 5.1 / 48 kHz / 448 kbps / DN -4dB

********************
PLAYLIST: 00016.MPLS
********************

<--- BEGIN FORUMS PASTE --->
Total Video
Title Codec Length Movie Size Disc Size Bitrate Bitrate Main Audio Track Secondary Audio Track
----- ------ ------- -------------- -------------- ------- ------- ------------------ ---------------------
00016.MPLS AVC 0:02:20 156205056 20884618230 8,90 8,00 DD AC3 5.1 448Kbps
DISC INFO:

Disc Title: BAD_GIRLS_6_BD
Disc Size: 20884618230 bytes
Protection: AACS
BD-Java: No
BDInfo: 0.5.8

PLAYLIST REPORT:

Name: 00016.MPLS
Length: 0:02:20.473 (h:m:s.ms)
Size: 156205056 bytes
Total Bitrate: 8,90 Mbps

VIDEO:

Codec Bitrate Description
----- ------- -----------
MPEG-4 AVC Video 7995 kbps 1080p / 23,976 fps / 16:9 / High Profile 4.1

AUDIO:

Codec Language Bitrate Description
----- -------- ------- -----------
Dolby Digital Audio English 448 kbps 5.1 / 48 kHz / 448 kbps / DN -4dB

FILES:

Name Time In Length Size Total Bitrate
---- ------- ------ ---- -------------
00019.M2TS 0:00:00.000 0:02:20.473 156205056 8896

CHAPTERS:

Number Time In Length Avg Video Rate Max 1-Sec Rate Max 1-Sec Time Max 5-Sec Rate Max 5-Sec Time Max 10Sec Rate Max 10Sec Time Avg Frame Size Max Frame Size Max Frame Time
------ ------- ------ -------------- -------------- -------------- -------------- -------------- -------------- -------------- -------------- -------------- --------------
1 0:00:00.000 0:02:19.472 8052 kbps 18371 kbps 00:02:09.337 12157 kbps 00:02:05.875 11356 kbps 00:02:00.870 41967 bytes 231880 bytes 00:01:23.625
2 0:02:19.472 0:00:01.000 91 kbps 0 kbps 00:00:00.000 0 kbps 00:00:00.000 0 kbps 00:00:00.000 493 bytes 2500 bytes 00:02:19.639

STREAM DIAGNOSTICS:

File PID Type Codec Language Seconds Bitrate Bytes Packets
---- --- ---- ----- -------- -------------- -------------- ------------- -----
00019.M2TS 4113 (0x1011) 0x1B AVC 140,390 8000 140390822 764924
00019.M2TS 4352 (0x1100) 0x81 AC3 eng (English) 140,390 448 7866880 43900
<---- END FORUMS PASTE ---->

QUICK SUMMARY:

Disc Title: BAD_GIRLS_6_BD
Disc Size: 20884618230 bytes
Protection: AACS
BD-Java: No
Playlist: 00016.MPLS
Size: 156205056 bytes
Length: 0:02:20.473
Total Bitrate: 8,90 Mbps
Video: MPEG-4 AVC Video / 7995 kbps / 1080p / 23,976 fps / 16:9 / High Profile 4.1
Audio: English / Dolby Digital Audio / 5.1 / 48 kHz / 448 kbps / DN -4dB

********************
PLAYLIST: 00009.MPLS
********************

<--- BEGIN FORUMS PASTE --->
Total Video
Title Codec Length Movie Size Disc Size Bitrate Bitrate Main Audio Track Secondary Audio Track
----- ------ ------- -------------- -------------- ------- ------- ------------------ ---------------------
00009.MPLS AVC 0:02:19 154982400 20884618230 8,89 7,99 DD AC3 5.1 448Kbps
DISC INFO:

Disc Title: BAD_GIRLS_6_BD
Disc Size: 20884618230 bytes
Protection: AACS
BD-Java: No
BDInfo: 0.5.8

PLAYLIST REPORT:

Name: 00009.MPLS
Length: 0:02:19.514 (h:m:s.ms)
Size: 154982400 bytes
Total Bitrate: 8,89 Mbps

VIDEO:

Codec Bitrate Description
----- ------- -----------
MPEG-4 AVC Video 7986 kbps 1080p / 23,976 fps / 16:9 / High Profile 4.1

AUDIO:

Codec Language Bitrate Description
----- -------- ------- -----------
Dolby Digital Audio English 448 kbps 5.1 / 48 kHz / 448 kbps / DN -4dB

FILES:

Name Time In Length Size Total Bitrate
---- ------- ------ ---- -------------
00009.M2TS 0:00:00.000 0:02:19.514 154982400 8887

CHAPTERS:

Number Time In Length Avg Video Rate Max 1-Sec Rate Max 1-Sec Time Max 5-Sec Rate Max 5-Sec Time Max 10Sec Rate Max 10Sec Time Avg Frame Size Max Frame Size Max Frame Time
------ ------- ------ -------------- -------------- -------------- -------------- -------------- -------------- -------------- -------------- -------------- --------------
1 0:00:00.000 0:02:18.513 8043 kbps 18983 kbps 00:00:09.509 14842 kbps 00:00:05.505 13285 kbps 00:00:00.500 41921 bytes 325517 bytes 00:01:45.522
2 0:02:18.513 0:00:01.000 76 kbps 0 kbps 00:00:00.000 0 kbps 00:00:00.000 0 kbps 00:00:00.000 412 bytes 2430 bytes 00:02:19.347

STREAM DIAGNOSTICS:

File PID Type Codec Language Seconds Bitrate Bytes Packets
---- --- ---- ----- -------- -------------- -------------- ------------- -----
00009.M2TS 4113 (0x1011) 0x1B AVC 139,348 7996 139271477 758884
00009.M2TS 4352 (0x1100) 0x81 AC3 eng (English) 139,348 449 7813120 43600
<---- END FORUMS PASTE ---->

QUICK SUMMARY:

Disc Title: BAD_GIRLS_6_BD
Disc Size: 20884618230 bytes
Protection: AACS
BD-Java: No
Playlist: 00009.MPLS
Size: 154982400 bytes
Length: 0:02:19.514
Total Bitrate: 8,89 Mbps
Video: MPEG-4 AVC Video / 7986 kbps / 1080p / 23,976 fps / 16:9 / High Profile 4.1
Audio: English / Dolby Digital Audio / 5.1 / 48 kHz / 448 kbps / DN -4dB

********************
PLAYLIST: 00014.MPLS
********************

<--- BEGIN FORUMS PASTE --->
Total Video
Title Codec Length Movie Size Disc Size Bitrate Bitrate Main Audio Track Secondary Audio Track
----- ------ ------- -------------- -------------- ------- ------- ------------------ ---------------------
00014.MPLS AVC 0:02:09 143579136 20884618230 8,89 7,99 DD AC3 5.1 448Kbps
DISC INFO:

Disc Title: BAD_GIRLS_6_BD
Disc Size: 20884618230 bytes
Protection: AACS
BD-Java: No
BDInfo: 0.5.8

PLAYLIST REPORT:

Name: 00014.MPLS
Length: 0:02:09.254 (h:m:s.ms)
Size: 143579136 bytes
Total Bitrate: 8,89 Mbps

VIDEO:

Codec Bitrate Description
----- ------- -----------
MPEG-4 AVC Video 7986 kbps 1080p / 23,976 fps / 16:9 / High Profile 4.1

AUDIO:

Codec Language Bitrate Description
----- -------- ------- -----------
Dolby Digital Audio English 448 kbps 5.1 / 48 kHz / 448 kbps / DN -4dB

FILES:

Name Time In Length Size Total Bitrate
---- ------- ------ ---- -------------
00017.M2TS 0:00:00.000 0:02:09.254 143579136 8887

CHAPTERS:

Number Time In Length Avg Video Rate Max 1-Sec Rate Max 1-Sec Time Max 5-Sec Rate Max 5-Sec Time Max 10Sec Rate Max 10Sec Time Avg Frame Size Max Frame Size Max Frame Time
------ ------- ------ -------------- -------------- -------------- -------------- -------------- -------------- -------------- -------------- -------------- --------------
1 0:00:00.000 0:02:08.253 8048 kbps 14491 kbps 00:00:51.885 11767 kbps 00:01:28.630 10948 kbps 00:01:06.566 41944 bytes 450670 bytes 00:01:44.687
2 0:02:08.253 0:00:01.000 76 kbps 0 kbps 00:00:00.000 0 kbps 00:00:00.000 0 kbps 00:00:00.000 412 bytes 2430 bytes 00:02:09.129

STREAM DIAGNOSTICS:

File PID Type Codec Language Seconds Bitrate Bytes Packets
---- --- ---- ----- -------- -------------- -------------- ------------- -----
00017.M2TS 4113 (0x1011) 0x1B AVC 129,129 7994 129027706 703027
00017.M2TS 4352 (0x1100) 0x81 AC3 eng (English) 129,129 449 7239680 40400
<---- END FORUMS PASTE ---->

QUICK SUMMARY:

Disc Title: BAD_GIRLS_6_BD
Disc Size: 20884618230 bytes
Protection: AACS
BD-Java: No
Playlist: 00014.MPLS
Size: 143579136 bytes
Length: 0:02:09.254
Total Bitrate: 8,89 Mbps
Video: MPEG-4 AVC Video / 7986 kbps / 1080p / 23,976 fps / 16:9 / High Profile 4.1
Audio: English / Dolby Digital Audio / 5.1 / 48 kHz / 448 kbps / DN -4dB

********************
PLAYLIST: 00004.MPLS
********************

<--- BEGIN FORUMS PASTE --->
Total Video
Title Codec Length Movie Size Disc Size Bitrate Bitrate Main Audio Track Secondary Audio Track
----- ------ ------- -------------- -------------- ------- ------- ------------------ ---------------------
00004.MPLS AVC 0:02:07 334921728 20884618230 21,01 19,60 DD AC3 5.1 448Kbps
DISC INFO:

Disc Title: BAD_GIRLS_6_BD
Disc Size: 20884618230 bytes
Protection: AACS
BD-Java: No
BDInfo: 0.5.8

PLAYLIST REPORT:

Name: 00004.MPLS
Length: 0:02:07.544 (h:m:s.ms)
Size: 334921728 bytes
Total Bitrate: 21,01 Mbps

VIDEO:

Codec Bitrate Description
----- ------- -----------
MPEG-4 AVC Video 19601 kbps 1080p / 23,976 fps / 16:9 / High Profile 4.1

AUDIO:

Codec Language Bitrate Description
----- -------- ------- -----------
Dolby Digital Audio English 448 kbps 5.1 / 48 kHz / 448 kbps / DN -4dB

FILES:

Name Time In Length Size Total Bitrate
---- ------- ------ ---- -------------
00004.M2TS 0:00:00.000 0:02:07.544 334921728 21007

CHAPTERS:

Number Time In Length Avg Video Rate Max 1-Sec Rate Max 1-Sec Time Max 5-Sec Rate Max 5-Sec Time Max 10Sec Rate Max 10Sec Time Avg Frame Size Max Frame Size Max Frame Time
------ ------- ------ -------------- -------------- -------------- -------------- -------------- -------------- -------------- -------------- -------------- --------------
1 0:00:00.000 0:02:06.543 19756 kbps 31561 kbps 00:00:23.106 25235 kbps 00:01:07.275 24714 kbps 00:01:01.561 102965 bytes 351939 bytes 00:00:23.148
2 0:02:06.543 0:00:01.001 59 kbps 0 kbps 00:00:00.000 0 kbps 00:00:00.000 0 kbps 00:00:00.000 320 bytes 1855 bytes 00:02:07.252

STREAM DIAGNOSTICS:

File PID Type Codec Language Seconds Bitrate Bytes Packets
---- --- ---- ----- -------- -------------- -------------- ------------- -----
00004.M2TS 4113 (0x1011) 0x1B AVC 127,377 19627 312505067 1700209
00004.M2TS 4352 (0x1100) 0x81 AC3 eng (English) 127,377 449 7142912 39860
<---- END FORUMS PASTE ---->

QUICK SUMMARY:

Disc Title: BAD_GIRLS_6_BD
Disc Size: 20884618230 bytes
Protection: AACS
BD-Java: No
Playlist: 00004.MPLS
Size: 334921728 bytes
Length: 0:02:07.544
Total Bitrate: 21,01 Mbps
Video: MPEG-4 AVC Video / 19601 kbps / 1080p / 23,976 fps / 16:9 / High Profile 4.1
Audio: English / Dolby Digital Audio / 5.1 / 48 kHz / 448 kbps / DN -4dB

********************
PLAYLIST: 00008.MPLS
********************

<--- BEGIN FORUMS PASTE --->
Total Video
Title Codec Length Movie Size Disc Size Bitrate Bitrate Main Audio Track Secondary Audio Track
----- ------ ------- -------------- -------------- ------- ------- ------------------ ---------------------
00008.MPLS AVC 0:02:05 139216896 20884618230 8,89 7,99 DD AC3 5.1 448Kbps
DISC INFO:

Disc Title: BAD_GIRLS_6_BD
Disc Size: 20884618230 bytes
Protection: AACS
BD-Java: No
BDInfo: 0.5.8

PLAYLIST REPORT:

Name: 00008.MPLS
Length: 0:02:05.333 (h:m:s.ms)
Size: 139216896 bytes
Total Bitrate: 8,89 Mbps

VIDEO:

Codec Bitrate Description
----- ------- -----------
MPEG-4 AVC Video 7986 kbps 1080p / 23,976 fps / 16:9 / High Profile 4.1

AUDIO:

Codec Language Bitrate Description
----- -------- ------- -----------
Dolby Digital Audio English 448 kbps 5.1 / 48 kHz / 448 kbps / DN -4dB

FILES:

Name Time In Length Size Total Bitrate
---- ------- ------ ---- -------------
00008.M2TS 0:00:00.000 0:02:05.333 139216896 8886

CHAPTERS:

Number Time In Length Avg Video Rate Max 1-Sec Rate Max 1-Sec Time Max 5-Sec Rate Max 5-Sec Time Max 10Sec Rate Max 10Sec Time Avg Frame Size Max Frame Size Max Frame Time
------ ------- ------ -------------- -------------- -------------- -------------- -------------- -------------- -------------- -------------- -------------- --------------
1 0:00:00.000 0:02:05.333 7986 kbps 18275 kbps 00:01:04.147 13486 kbps 00:01:14.449 12189 kbps 00:01:01.102 41634 bytes 375746 bytes 00:01:05.065

STREAM DIAGNOSTICS:

File PID Type Codec Language Seconds Bitrate Bytes Packets
---- --- ---- ----- -------- -------------- -------------- ------------- -----
00008.M2TS 4113 (0x1011) 0x1B AVC 125,167 7996 125109227 681686
00008.M2TS 4352 (0x1100) 0x81 AC3 eng (English) 125,167 449 7019264 39170
<---- END FORUMS PASTE ---->

QUICK SUMMARY:

Disc Title: BAD_GIRLS_6_BD
Disc Size: 20884618230 bytes
Protection: AACS
BD-Java: No
Playlist: 00008.MPLS
Size: 139216896 bytes
Length: 0:02:05.333
Total Bitrate: 8,89 Mbps
Video: MPEG-4 AVC Video / 7986 kbps / 1080p / 23,976 fps / 16:9 / High Profile 4.1
Audio: English / Dolby Digital Audio / 5.1 / 48 kHz / 448 kbps / DN -4dB
General #0
ID : 0 (0x0)
Complete name : BAD_GIRLS_6_BD\BDMV\STREAM\00002.m2ts
Format : BDAV
Format/Info : Blu-ray Video
File size : 16.7 GiB
Duration : 1h 56mn
Overall bit rate mode : Variable
Overall bit rate : 20.6 Mbps
Maximum Overall bit rate : 48.0 Mbps
Video #4113
ID : 4113 (0x1011)
Menu ID : 1 (0x1)
Format : AVC
Format/Info : Advanced Video Codec
Format profile : High@L4.1
Format settings, CABAC : Yes
Format settings, ReFrames : 4 frames
Codec ID : 27
Duration : 1h 56mn
Bit rate mode : Variable
Bit rate : 19.2 Mbps
Maximum bit rate : 25.0 Mbps
Width : 1 920 pixels
Height : 1 080 pixels
Display aspect ratio : 16:9
Frame rate : 23.976 fps
Standard : NTSC
Color space : YUV
Chroma subsampling : 4:2:0
Bit depth : 8 bits
Scan type : Progressive
Bits/(Pixel*Frame) : 0.385
Stream size : 15.5 GiB (93%)
Color primaries : BT.709-5, BT.1361, IEC 61966-2-4, SMPTE RP177
Transfer characteristics : BT.709-5, BT.1361
Matrix coefficients : BT.709-5, BT.1361, IEC 61966-2-4 709, SMPTE RP177
Audio #4352
ID : 4352 (0x1100)
Menu ID : 1 (0x1)
Format : AC-3
Format/Info : Audio Coding 3
Mode extension : CM (complete main)
Codec ID : 129
Duration : 1h 56mn
Bit rate mode : Constant
Bit rate : 640 Kbps
Channel(s) : 6 channels
Channel positions : Front: L C R, Side: L R, LFE
Sampling rate : 48.0 KHz
Bit depth : 16 bits
Compression mode : Lossy
Stream size : 531 MiB (3%)


 ·  , , FAQ-
:  [ 02--2013 11:01 ]

  

.torrent

.torrent 103 KB


: 19.45 GB
(hash) : 1264f996139224b86f75bec9fb0b0ff45073cb2b
··
...

Bad Girls 6 6 . !

!