Скачать через торрент Дьявольские возлюбленные Diabolik Lovers бесплатно Аниме Все серии на русском torrent

Если у вас наблюдаются проблемы со скриншотами, переходом по ссылками, скачиванием торрентов - проблемы в блокировщике рекламы AdBlock. #хорошегоДня!


Статистика раздачи
Размер:  1.53 GB   |    Зарегистрирован:  4 года 1 месяц   |    .torrent скачан:  31 раз   |   
Раздают:  1  
   
Загрузка...
 
Автор Сообщение

Polarnik

avatar Polarnik


Дьявольские возлюбленные / Diabolik Lovers
Год выпуска: 2013
Страна: Япония
Жанр: сёдзе, гарем, мистика
Продолжительность: ТВ (12 эп.), 15 мин.
Перевод:

Русские субтитры YakuSub Studio
Перевод: Nika_Elrik | Редактура: 6aPHaK | Оформление: Helge
Русские субтитры Timecraft
Перевод: Аманри | Редактура: Angie

Озвучка:

двухголосная от Lonely Dragon & Shina (Anidub) (внешним файлом) - Sample
Студия: ZEXCS
Режиссер: Тагасира Синобу
Описание: Комори Юи — обычная студентка старшей школы. В детстве она видела призраков и полтергейст, но никогда не придавала этому большого значения. После переезда с отцом в другой город она поступила в ночную школу для исполнителей и знаменитостей. Однако за кажущимся великолепием скрывались разные слухи. Один из них ведал о студентах, которые были атакованы вампирами.
Не обращая внимания на происходящее, девушка остается жить с родственниками в пансионе, где вместе с ней обитают шесть довольно привлекательных братьев, и вскоре узнает, что у тех откровенно ужасные характеры. Более того, они не совсем люди...
Полезные ссылки: World Art, ANN, AniDB, MyAnimeList
Технические данные:
Качество: HDTVRip
Тип релиза: Без хардсаба
Формат видео: MP4
Наличие линковки: Нет
Релиз/Автор рипа: [Leopard-Raws]
Видео: 1280x720, 23,976fps, H.264, 8 bit, ~2004 kbps
Аудио 1: JAP, AAC LC, 48 KHz, 192 kbps
Аудио 2: RUS(ext), AAC LC, 48 KHz, 192 Kbps
General
Complete name                            : D:\Видео\Аниме\Осень 2013\Diabolik Lovers\[Leopard-Raws] Diabolik Lovers - 01 RAW (ATX 1280x720 x264 AAC).mp4
Format                                   : MPEG-4
Format profile                           : Base Media
Codec ID                                 : isom
File size                                : 237 MiB
Duration                                 : 15mn 2s
Overall bit rate mode                    : Variable
Overall bit rate                         : 2 199 Kbps
Encoded date                             : UTC 2013-09-16 16:30:47
Tagged date                              : UTC 2013-09-16 16:30:47

Video
ID                                       : 1
Format                                   : AVC
Format/Info                              : Advanced Video Codec
Format profile                           : High@L4.1
Format settings, CABAC                   : Yes
Format settings, ReFrames                : 4 frames
Codec ID                                 : avc1
Codec ID/Info                            : Advanced Video Coding
Duration                                 : 15mn 2s
Bit rate                                 : 2 004 Kbps
Maximum bit rate                         : 12.2 Mbps
Width                                    : 1 280 pixels
Height                                   : 720 pixels
Display aspect ratio                     : 16:9
Frame rate mode                          : Constant
Frame rate                               : 23.976 fps
Color space                              : YUV
Chroma subsampling                       : 4:2:0
Bit depth                                : 8 bits
Scan type                                : Progressive
Bits/(Pixel*Frame)                       : 0.091
Stream size                              : 216 MiB (91%)
Title                                    : 264:fps=23.976@GPAC0.5.1-DEV-rev4283
Writing library                          : x264 core 129 r2245+729M 1a52e03
Encoding settings                        : cabac=1 / ref=4 / deblock=1:1:-1 / analyse=0x3:0x113 / me=umh / subme=9 / psy=1 / fade_compensate=0.00 / psy_rd=1.00:0.00 / mixed_ref=1 / me_range=24 / chroma_me=1 / trellis=2 / 8x8dct=1 / cqm=0 / deadzone=21,11 / fast_pskip=1 / chroma_qp_offset=-2 / threads=8 / lookahead_threads=1 / sliced_threads=0 / nr=0 / decimate=1 / interlaced=0 / bluray_compat=0 / constrained_intra=0 / fgo=0 / bframes=9 / b_pyramid=2 / b_adapt=2 / b_bias=0 / direct=1 / weightb=1 / open_gop=0 / weightp=2 / keyint=240 / keyint_min=24 / scenecut=40 / intra_refresh=0 / rc=crf / mbtree=0 / crf=18.5 / qcomp=0.72 / qpmin=0 / qpmax=69 / qpstep=4 / ip_ratio=1.40 / pb_ratio=1.30 / aq=1:0.85
Encoded date                             : UTC 2013-09-16 16:30:47
Tagged date                              : UTC 2013-09-16 16:30:48
Color primaries                          : BT.709
Transfer characteristics                 : BT.709
Matrix coefficients                      : BT.709

Audio
ID                                       : 2
Format                                   : AAC
Format/Info                              : Advanced Audio Codec
Format profile                           : LC
Codec ID                                 : 40
Duration                                 : 15mn 2s
Bit rate mode                            : Variable
Bit rate                                 : 192 Kbps
Maximum bit rate                         : 251 Kbps
Channel(s)                               : 2 channels
Channel positions                        : Front: L R
Sampling rate                            : 48.0 KHz
Compression mode                         : Lossy
Stream size                              : 20.6 MiB (9%)
Language                                 : Japanese
Encoded date                             : UTC 2013-09-16 15:47:03
Tagged date                              : UTC 2013-09-16 16:30:48


01. Episode 01
02. Episode 02
03. Episode 03
04. Episode 04
05. Episode 05
06. Episode 06
Sp 01. Episode 06.5

[31.10.13] Добавлены 6 - 6.5 серии. Перекачайте торрент, пожалуйста!


Трекер:  [ 01-Ноя-2013 20:28 ]

  

Скачать .torrent

Размер .torrent файла 19 KB


Размер: 1.53 GB
Хэш (hash) релиза: de617b5a9a8b19982f5b16a9221d6d0b9f3ab008
Подписка на обновления:

Торренты, похожие на Дьявольские возлюбленные Diabolik Lovers скачать торрент

Форум Название Автор Размер S L Добавлен
Аниме | Rips ·· Дьявольские возлюбленные / Diabolik Lovers [OVA] [1 из 1] [Без хардсаба] [JAP, SUB] [2015 г., приключения, сёдзе, гарем, мистика, DVDRip] Galfimbul 133747987128 MB 0 0 1425483905

18:45

4-Мар-15

Аниме | HD Rips ·· Дьявольские возлюбленные / Diabolik Lovers [TV+Special] [без хардсаба] [12+1 из 12+1][JAP+SUB] & [6 из 12+1] [RUS(ext)] [2013 г., сёдзе, гарем, мистика, HDTVRip] [720p] Polarnik 29767617762.77 GB 0 0 1386967150

23:39

13-Дек-13

Аниме | HD Rips ·· Дьявольские возлюбленные / Diabolik Lovers [TV] [без хардсаба] [8 из 12] [JAP+SUB] & [5 из 12] [RUS(ext)] [2013 г., сёдзе, гарем, мистика, HDTVRip] [720p] Polarnik 20936127681.95 GB 0 0 1385023551

11:45

21-Ноя-13

Аниме | HD Rips ·· Дьявольские возлюбленные / Diabolik Lovers (Тагасира Синобу) [TV+Special] [01-06+01 из 12+01] [Без хардсаба] [JAP+SUB] [2013 г., приключения, сёдзе, гарем, мистика, WEBRip] [1080p] Polarnik 24978488402.33 GB 0 0 1383166929

00:02

31-Окт-13

Аниме | HD Rips ·· Дьявольские возлюбленные / Diabolik Lovers (Тагасира Синобу) [TV+Special] [01-06+01 из 12+01] [Без хардсаба] [JAP+SUB] [2013 г., приключения, сёдзе, гарем, мистика, WEBRip] [720p] Polarnik 14894726871.39 GB 0 0 1383166924

00:02

31-Окт-13

Аниме | Rips ·· Дьявольские возлюбленные / Diabolik Lovers (Тагасира Синобу) [TV+Special] [01-06+01 из 12+01] [Без хардсаба] [JAP+SUB] [2013 г., приключения, сёдзе, гарем, мистика, WEBRip] Polarnik 679300788648 MB 0 0 1383166898

00:01

31-Окт-13

Аниме | HD Rips ·· Дьявольские возлюбленные / Diabolik Lovers [TV] [без хардсаба] [5 из 12] [JAP+SUB] & [4 из 12] [RUS(ext)] [2013 г., сёдзе, гарем, мистика, HDTVRip] [720p] Polarnik 12007170741.12 GB 0 0 1382301254

23:34

20-Окт-13

Аниме | HD Rips ·· Дьявольские возлюбленные / Diabolik Lovers [TV] [без хардсаба] [4 из 12] [JAP+SUB] & [3 из 12] [RUS(ext)] [2013 г., сёдзе, гарем, мистика, HDTVRip] [720p] Galfimbul 969190328924 MB 0 0 1381610884

23:48

12-Окт-13

Аниме | HD Rips ·· Дьявольские возлюбленные / Diabolik Lovers (Тагасира Синобу) [TV] [01 из 12] [Без хардсаба] [JAP+SUB] [2013 г., приключения, сёдзе, гарем, мистика, WEBRip] [1080p] Polarnik 354826676338 MB 0 0 1379450993

23:49

17-Сен-13

Еще никто не оставлял запись к записи скачать торрент Дьявольские возлюбленные Diabolik Lovers . Будь первым!

!Обратная связь