Скачать порно через торрент Chelsie Rae Is...The Animal Челси Рей – Животное UnionPeer.org бесплатно онлайн HD качество

Скачать новое порно 2015, 2014 новинки через торрент UnionPeer.org

Порно торрент бесплатно ЮнионПир.орг

Если у вас наблюдаются проблемы со скриншотами, переходом по ссылками, скачиванием торрентов - проблемы в блокировщике рекламы AdBlock. #хорошегоДня!


Статистика раздачи
Размер:  4.36 GB   |    Зарегистрирован:  4 года   |    .torrent скачан:  156 раз   |   
Раздают:  1  
   
Загрузка...
 
Автор Сообщение

LinGr

avatar LinGr


Chelsie Rae Is...The Animal
Челси Рей – Животное


Альтернативные названия:
* Animal
* The Animal

Год производства:
2007 г.
Release Date: December 2007
Страна: USA

Жанр:
Feature, All Sex, Blowjob, Anal, Double Penetration, Ass To Mouth, Facial, Swallow, Peeing, Squirt, Creampie, Cumshots, Interracial, Threesome, Gangbang, Bondage, Domination, Rough Sex, Toys, Fetish, Roleplaying, Straight, Compilation

Продолжительность:
01:58:15 (фильм)
01:04:18 (бонус)

Режиссер:
Jim Powers
Студия:
JM Productions, Powersville

Язык:
Английский

В ролях:
Actresses-
Audrey Hollander [Anal A2M]
Chelsie Rae [Anal Facial DP Swallow A2M Pee Creampie IR]

Actors-
Buster Good, Dane Cross, Devlin Weed, Dirty Harry, Eddie Charisma, Eric Swiss, Gorgus Drae, Hector Steele, Jenner, Jeremy Steele, John West, Mike Hash, Nick East, Otto Bauer, Ralph Long, Rick Masters, Ryan Knox, Seth Dickens, Steve James, Tony Eveready, Tony Tedeschi, Zak Atak
Scene 1. Chelsie Rae, guy
Scene 2. Audrey Hollander, Chelsie Rae, Otto Bauer
Scene 3. Chelsie Rae, 2 guys, Buster Good, Dane Cross, Dirty Harry, Eddie Charisma, Eric Swiss, Hector Steele, Jenner, Jeremy Steele, John West, Mike Hash, Nick East, Ralph Long, Rick Masters, Ryan Knox, Seth Dickens, Steve James, Tony Tedeschi, Zak Atak
Scene 4. Chelsie Rae, Devlin Weed, Gorgus Drae, Tony Eveready
Scene 5. Chelsie Rae, Guys
Описание:

She ''ll do anything for love!

Chelsie Rae is the biggest slut in all of porn and Jim Powers takes full advantage of her lack of self control in this AMAZING movie.

Filled with 19 loads of cum. Pounded by huge black cocks. Gagged and choked by too much cock. All holes stuffed her ass left gaping. Swallowing 20 loads of semen. Chelsie did it all for love!

What a complete mind fuck this guy plays on this dumb innocent girl. This is not your garden-variety boy meets girl, they fall in love happily ever after bullshit. This guy manipulates this love starved bimbo and plays some serious head games with her. All poor Chelsie Rae wants is for this guy to want her, and to fuck her...but he wont. He would much rather make her beg for his dick, and in the process he decided to capitalize on her need for his attention and make her into his personal fuck toy. This twisted (but creative) dude puts Chelsie through all sorts of degrading sexual escapades...tune in to find out just how depraved it gets! Меню: Есть
Доп. материалы и бонусы:
http://www.adultdvdemart.com/-/adult_dvd_product_info/filmid=PWVL00068.html/-9F63CD3B-C702-4BC8-9376-F3D346C5E5A0

Качество видео: DVD5
Аудио кодек: AC3
Видео: 5000 Kbps, 29.970 fps, 720*480 (or 853*480 / 16:9) MPG2 = MPEG 2 (SVCD/DVD)
Аудио: 192 Kbps, 48000 Hz, 2 ch, 0x2000 = AC3 DVM [0x80]
Общее
Полное имя : The Animal (2007) DVD5\VIDEO_TS\VTS_01_1.VOB
Формат : MPEG-PS
Размер файла : 1024 Мбайт
Продолжительность : 44 м.
Общий поток : 3188 Кбит/сек

Видео
Идентификатор : 224 (0xE0)
Формат : MPEG Video
Версия формата : Version 2
Профиль формата : Main@Main
Параметр BVOP формата : Да
Параметр матрицы формата : По умолчанию
Параметр GOP формата : M=3, N=13
Продолжительность : 44 м.
Битрейт : 2933 Кбит/сек
Максимальный битрейт : 5000 Кбит/сек
Ширина : 720 пикселей
Высота : 480 пикселей
Соотношение сторон : 16:9
Частота кадров : 29,970 кадров/сек
Стандарт вещания : NTSC
Цветовое пространство : YUV
Субдискретизация насыщенности : 4:2:0
Битовая глубина : 8 бит
Тип развёртки : Чересстрочная
Порядок развёртки : Верхнее поле первое
Метод сжатия : С потерями
Бит/(Пиксели*Кадры) : 0.283
Размер потока : 942 Мбайт (92%)
Основные цвета : SMPTE 170M
Характеристики трансфера : SMPTE 170M
Коэффициенты матрицы : SMPTE 170M

Аудио
Идентификатор : 189 (0xBD)-128 (0x80)
Формат : AC-3
Формат/Информация : Audio Coding 3
Расширение режима : CM (complete main)
Режим смешивания : DVD-Video
Продолжительность : 44 м.
Вид битрейта : Постоянный
Битрейт : 192 Кбит/сек
Каналы : 2 канала
Расположение каналов : Front: L R
Частота : 48,0 КГц
Битовая глубина : 16 бит
Метод сжатия : С потерями
Задержка видео : 101 мс.
Размер потока : 61,7 Мбайт (6%)

Меню


Трекер:  [ 30-Окт-2013 21:24 ]

  

Скачать .torrent

Размер .torrent файла 12 KB


Размер: 4.36 GB
Хэш (hash) релиза: af0ad679a63533e7aac4724c568ec08715415236

Торренты, похожие на Chelsie Rae Is...The Animal Челси Рей – Животное скачать торрент

Форум Название Автор Размер S L Добавлен
Порно фильмы без сюжета ·· Chelsie Rae is...The Animal / Челси Рей... Животное (JM Productions) [2008 г., Anal, Gangbang , DVDRip] Galfimbul 738437341704 MB 3 0 1364558880

15:08

29-Мар-13

bot

Топик был перенесен в форум Гонзо-фильмы

Перенес LinGr

Хотите добавить комментарий к записи скачать торрент Chelsie Rae Is...The Animal Челси Рей – Животное

!Обратная связь