Скачать порно через торрент Впечатал в ковёр UnionPeer.org бесплатно онлайн HD качество

Скачать новое порно 2015, 2014 новинки через торрент UnionPeer.org

Порно торрент бесплатно ЮнионПир.орг

Если у вас наблюдаются проблемы со скриншотами, переходом по ссылками, скачиванием торрентов - проблемы в блокировщике рекламы AdBlock. #хорошегоДня!


Статистика раздачи
Размер:  101 MB   |    Зарегистрирован:  3 года 11 месяцев   |    .torrent скачан:  277 раз   |   
Раздают:  1  
   
Загрузка...
 
Автор Сообщение

LinGr

avatar LinGr


Впечатал в ковёр
Жанр: Babes, Blondes, Cum shots, Interracial, Straight, Oral Sex, Doggystyle
Продолжительность: 00:09:45

Описание:
Блондинистая давалка ощутила себя несчастным цыплёнком, внезапно попавшим под асфальтоукладочный каток,
а её нутренние ощущения скорее походили на переживания варёной картошки, тщательно размятой в пюре...
Озвучка под стать видео - динамичная и эмоциональная.

Качество видео: CamRip
Формат видео: AVI
Видео кодек: DivX
Аудио кодек: MP3
Видео: DivX 5 720x406 25fps 1250 Kbps
Аудио: MPEG Audio Layer 3 48000Hz stereo 192kbps
General
Complete name down_onto_cover.avi
Format : AVI
Format/Info : Audio Video Interleave
File size : 101 MiB
Duration : 9mn 45s
Overall bit rate : 1 452 Kbps

Video
ID : 0
Format : MPEG-4 Visual
Format settings, BVOP : 1
Format settings, QPel : No
Format settings, GMC : No warppoints
Format settings, Matrix : Default (H.263)
Muxing mode : Packed bitstream
Codec ID : DX50
Codec ID/Hint : DivX 5
Duration : 9mn 44s
Bit rate : 1 251 Kbps
Width : 720 pixels
Height : 406 pixels
Display aspect ratio : 16:9
Frame rate : 25.000 fps
Color space : YUV
Chroma subsampling : 4:2:0
Bit depth : 8 bits
Scan type : Progressive
Compression mode : Lossy
Bits/(Pixel*Frame) : 0.171
Stream size : 87.2 MiB (86%)
Title : Video
Writing library : DivX 2682

Audio
ID : 1
Format : MPEG Audio
Format version : Version 1
Format profile : Layer 3
Mode : Joint stereo
Mode extension : MS Stereo
Codec ID : 55
Codec ID/Hint : MP3
Duration : 9mn 45s
Bit rate mode : Constant
Bit rate : 192 Kbps
Channel(s) : 2 channels
Sampling rate : 48.0 KHz
Compression mode : Lossy
Stream size : 13.4 MiB (13%)
Alignment : Split accross interleaves
Interleave, duration : 40 ms (1.00 video frame)
Interleave, preload duration : 500 ms
Title : Audio - en-US01


Трекер:  [ 29-Окт-2013 18:49 ]

  

Скачать .torrent

Размер .torrent файла 16 KB


Размер: 101 MB
Хэш (hash) релиза: 4e7cdb86bca9fcb0c7524b1a05c440d95fd7d0bd

Еще никто не оставлял запись к записи скачать торрент Впечатал в ковёр . Будь первым!

!Обратная связь