Скачать порно через торрент Pound The Round 7 Засади Сзади 7 UnionPeer.org бесплатно онлайн HD качество

Скачать новое порно 2015, 2014 новинки через торрент UnionPeer.org

Порно торрент бесплатно ЮнионПир.орг

Если у вас наблюдаются проблемы со скриншотами, переходом по ссылками, скачиванием торрентов - проблемы в блокировщике рекламы AdBlock. #хорошегоДня!


Статистика раздачи
Размер:  4.36 GB   |    Зарегистрирован:  3 года 11 месяцев   |    .torrent скачан:  347 раз   |   
Раздают:  1  
   
Загрузка...
 
Автор Сообщение

LinGr

avatar LinGr


Pound The Round 7 / Засади Сзади 7

Альтернативное название:
* Pound the Round POV 7

Награды:
* 2011 AVN Award Nominee for Best Big Butt Series.

Год производства: 2010 г.
Released on DVD: October 7, 2010
Страна: USA
Жанр: Gonzo, All Sex & Compilations, Oral, Anal, Ass To Mouth, POV, Big Butts, Swallow, Straight, Hardcore, 2011 AVN Award Nominees, Pound the Round POV Series
Продолжительность: 03:01:31 (фильм) + 01:21:55 (бонус) + 02:14:12 (по жанрам)

Режиссер: Laslo H., Mike Adriano
Студия: Digital Sin (New Sensations)

Язык: Английский

В ролях:
Actresses-
Ivy Rider (as Ivy Ryder) [Bald]
Jenna Presley
Katie Summers [Anal Bald A2M]
Lynn Love [Bald]
Tori Lux [Anal Bald A2M]
DVD Only
Angelica Saige [Bald Swallow]

Actors- Mike Adriano
Scene 1. Jenna Presley, Mike Adriano
Scene 2. Ivy Rider, Mike Adriano
Scene 3. Katie Summers, Mike Adriano
Scene 4. Lynn Love, Mike Adriano
Scene 5. Tori Lux, Mike Adriano
DVD Bonus. Angelica Saige, Mike Adriano
Описание: We hope you're ready, because you're about to witness over 3 hours of serious pussy and ass pounding -- P.O.V. style! That's right.

Jenna Presley, Ivy Ryder, Tori Lux, Katie Summers, and Lynn Love are here, and they can't wait to get their pussies pummeled into the ground.
So what are you waiting for? It's pound the round time again, and we're going to show these booties who's boss! Меню: Есть
Доп. материалы и бонусы: http://www.adultdvdemart.com/-/adult_dvd_product_info/filmid=DISN00296.html/-427ED481-CD3C-4FEB-9CB1-38737CA3828C

Качество видео: DVD5
Аудио кодек: AC3
Видео: 7500 Kbps, 29.970 fps, 720*480 (or 853*480 / 16:9), MPG2 = MPEG 2 (SVCD/DVD)
Аудио: 192 Kbps, 48000 Hz, 2 ch, 0x2000 = AC3 DVM [0x80]
Общее
Полное имя : Pound The Round 7 (2010) DVD5\VIDEO_TS\VTS_06_1.VOB
Формат : MPEG-PS
Размер файла : 1024 Мбайт
Продолжительность : 57 м.
Режим общего битрейта : Переменный
Общий поток : 2495 Кбит/сек

Видео
Идентификатор : 224 (0xE0)
Формат : MPEG Video
Версия формата : Version 2
Профиль формата : Main@Main
Параметр BVOP формата : Да
Параметр матрицы формата : Выборочная
Параметр GOP формата : M=3, N=15
Продолжительность : 57 м.
Вид битрейта : Переменный
Битрейт : 2253 Кбит/сек
Максимальный битрейт : 7500 Кбит/сек
Ширина : 720 пикселей
Высота : 480 пикселей
Соотношение сторон : 16:9
Частота кадров : 29,970 кадров/сек
Стандарт вещания : NTSC
Цветовое пространство : YUV
Субдискретизация насыщенности : 4:2:0
Битовая глубина : 8 бит
Тип развёртки : Чересстрочная
Порядок развёртки : Нижнее поле первое
Метод сжатия : С потерями
Бит/(Пиксели*Кадры) : 0.218
Размер потока : 925 Мбайт (90%)
Основные цвета : SMPTE 170M
Характеристики трансфера : SMPTE 170M
Коэффициенты матрицы : SMPTE 170M

Аудио
Идентификатор : 189 (0xBD)-128 (0x80)
Формат : AC-3
Формат/Информация : Audio Coding 3
Расширение режима : CM (complete main)
Режим смешивания : DVD-Video
Продолжительность : 57 м.
Вид битрейта : Постоянный
Битрейт : 192 Кбит/сек
Каналы : 2 канала
Расположение каналов : Front: L R
Частота : 48,0 КГц
Битовая глубина : 16 бит
Метод сжатия : С потерями
Размер потока : 78,8 Мбайт (8%)

Меню


Трекер:  [ 29-Окт-2013 00:42 ]

  

Скачать .torrent

Размер .torrent файла 15 KB


Размер: 4.36 GB
Хэш (hash) релиза: bfc6888d6d577792e65902d4ec12528ba29fb6a1

bot

Топик был перенесен в форум Гонзо-фильмы

Перенес LinGr

Хотите добавить комментарий к записи скачать торрент Pound The Round 7 Засади Сзади 7

!Обратная связь