Скачать порно через торрент Rin x Sen + Ran->Sem: Cross Mix Рин x Сен + Ран->Сем: Кросс-микс UnionPeer.org бесплатно онлайн HD качество

Скачать новое порно 2015, 2014 новинки через торрент UnionPeer.org

Порно торрент бесплатно ЮнионПир.орг

Если у вас наблюдаются проблемы со скриншотами, переходом по ссылками, скачиванием торрентов - проблемы в блокировщике рекламы AdBlock. #хорошегоДня!


Статистика раздачи
Размер:  3.98 GB   |    Зарегистрирован:  3 года 9 месяцев   |    .torrent скачан:  193 раза   |   
Раздают:  1  
   
Загрузка...
 
Автор Сообщение

LinGr

avatar LinGr


Rin x Sen + Ran->Sem: Cross Mix
RINxSEN+Ran→Sem Cross Mix
Рин x Сен + Ран->Сем: Кросс-микс

Год производства: 2013 г.
Жанр: Anal sex, Big tits, Group sex, Oral sex, Bukkake, Rape, Toys, Teachers
Серии: ep. 1 of 2
Продолжительность: 1 x~30 min
Цензура: Есть

Озвучка: Японская (Оригинальная)

Режиссер: Yokoyama Hiromi
Автор оригинала: Guilty+
Студия: Suzuki Mirano

Описание RUS:
Нашу героиню зовут Urara она работает школьным учителем. Близится торжественный миг в её жизни, ведь скоро она выйдет за муж за влиятельного бизнесмена. Но вот её жених внезапно пропадает без вести, так как он влез в огромные долги что бы хоть как-то поддержать свой не большой бизнес, его долг перекачивал на Ururu. Через пару месяцев к ней наведывается не кто Yuji который предлагает ей выход из сложившийся ситуации, поработать в школе для мальчиков ровно месяц и он освободит её от долгов. Ururu даже не видя в этом как-то подвоха принимает его предложения, ведь выбора у неё просто на просто нету. Что же ожидает нашу героиню в этой школе и какую опасность она в себе таит скоро узнаем.

Описание ENG:
Our heroine named Urara she worked as a school teacher. Nearing the solemn moment in her life , because soon she will marry the husband of an influential businessman . But now her fiance suddenly goes missing , as he climbed into the huge debts that would somehow support its not a big business , its debt is pumped to the Ururu. After a couple of months, it is not visited by those who Yuji who offers her a way out of this situation , to work at a school for boys and one month he set her free from debt. Ururu not even seeing it as something dirty trick takes his suggestions , because the choice she simply just not there. What awaits our heroine in this school and the danger it poses to himself soon find out.

Информационные ссылки: AniDB - MAL - World Art - ХентайМаг

Качество видео: DVD5
Формат видео: DVD Video
Видео кодек: MPEG2
Аудио кодек: AC3
Видео: 720х480, (16:9), 29,970 кадров/сек, ~ 7200 Кбит/сек, NTSC
Аудио №1: JAP, AC-3, 2 канала, 192 Кбит/сек, 48,0 КГц
Аудио №2: JAP, AC-3, 2 канала, 192 Кбит/сек, 48,0 КГц
Общее
Полное имя : J:\VIDEO_TS\VTS_01_1.VOB
Формат : MPEG-PS
Размер файла : 1024 Мбайт
Продолжительность : 18 м.
Общий поток : 7723 Кбит/сек

Видео
Идентификатор : 224 (0xE0)
Формат : MPEG Video
Версия формата : Version 2
Профиль формата : Main@Main
Параметр BVOP формата : Да
Параметр матрицы формата : Выборочная
Параметр GOP формата : Variable
Продолжительность : 18 м.
Битрейт : 7200 Кбит/сек
Ширина : 720 пикселей
Высота : 480 пикселей
Соотношение сторон : 16:9
Частота кадров : 29,970 кадров/сек
Стандарт вещания : NTSC
Цветовое пространство : YUV
Субдискретизация насыщенности : 4:2:0
Битовая глубина : 8 бит
Тип развёртки : Чересстрочная
Порядок развёртки : Верхнее поле первое
Метод сжатия : С потерями
Бит/(Пиксели*Кадры) : 0.695
Временной код первого кадра : 01:00:00:00
Оригинал временного кода : Group of pictures header
Размер потока : 952 Мбайт (93%)

Аудио #1
Идентификатор : 189 (0xBD)-128 (0x80)
Формат : AC-3
Формат/Информация : Audio Coding 3
Расширение режима : CM (complete main)
Параметр Endianness формата : Big
Режим смешивания : DVD-Video
Продолжительность : 18 м.
Вид битрейта : Постоянный
Битрейт : 192 Кбит/сек
Каналы : 2 канала
Расположение каналов : Front: L R
Частота : 48,0 КГц
Битовая глубина : 16 бит
Метод сжатия : С потерями
Размер потока : 25,4 Мбайт (2%)

Аудио #2
Идентификатор : 189 (0xBD)-129 (0x81)
Формат : AC-3
Формат/Информация : Audio Coding 3
Расширение режима : CM (complete main)
Параметр Endianness формата : Big
Режим смешивания : DVD-Video
Продолжительность : 18 м.
Вид битрейта : Постоянный
Битрейт : 192 Кбит/сек
Каналы : 2 канала
Расположение каналов : Front: L R
Частота : 48,0 КГц
Битовая глубина : 16 бит
Метод сжатия : С потерями
Размер потока : 25,4 Мбайт (2%)

Меню


Трекер:  [ 27-Окт-2013 21:53 ]

  

Скачать .torrent

Размер .torrent файла 20 KB


Размер: 3.98 GB
Хэш (hash) релиза: 539ea97110dc67dd411b920dc2da24a190454479

bot

Топик был перенесен в форум Хентай | С цензурой

Перенес LinGr

Хотите добавить комментарий к записи скачать торрент Rin x Sen + Ran->Sem: Cross Mix Рин x Сен + Ран->Сем: Кросс-микс

!Обратная связь