Скачать порно через торрент Shiofuki Mermaid: Poolside no Hatsutaiken Брызги Русалки UnionPeer.org бесплатно онлайн HD качество

Скачать новое порно 2015, 2014 новинки через торрент UnionPeer.org

Порно торрент бесплатно ЮнионПир.орг

Если у вас наблюдаются проблемы со скриншотами, переходом по ссылками, скачиванием торрентов - проблемы в блокировщике рекламы AdBlock. #хорошегоДня!


Статистика раздачи
Размер:  2.5 GB   |    Зарегистрирован:  3 года 9 месяцев   |    .torrent скачан:  111 раз   |   
Раздают:  1  
   
Загрузка...
 
Автор Сообщение

LinGr

avatar LinGr


しおふきマーメイド プールサイドの初体験 | Shiofuki Mermaid: Poolside no Hatsutaiken
Брызги Русалки

Год выпуска: 2011
Страна: Япония
Жанр: anal, big tits, comedy, oral sex, virgins
Продолжительность: >1 эп. 30 мин.
Субтитры: Отсутствуют
Цензура: Присутствует
Студия: Schoolzone
Описание:
Makoto is an ordinary university student who often visits a nearby swimming pool to swim and watch women in swimsuits. One day, he is asked to teach Marina how to swim. It seems she can't swim at all. While he touches her body, he gets an erection. Marina notices it, and gives him a blowjob. When he touches her vagina, she cries out in pleasure and achieves female ejaculation. His unknown erotic ability comes into bloom! Make all women -from a university student to a married woman- ejaculate with your fingers!
Информационные ссылки: AniDB || MAL || World Art || ХентайМаг
Исходник: DVD-5
Видео: MPEG2 | NTSC | 16x9 | 720x480 | 9800 Kbps
Аудио JAP: AC-3 | 48000Hz | 192 Kbps | 2ch
01. OVA
General
Complete name : L:\VIDEO_TS\VTS_01_1.VOB
Format : MPEG-PS
File size : 1 024 MiB
Duration : 16mn 26s
Overall bit rate mode : Variable
Overall bit rate : 8 703 Kbps

Video
ID : 224 (0xE0)
Format : MPEG Video
Format version : Version 2
Format profile : Main@Main
Format settings, BVOP : Yes
Format settings, Matrix : Custom
Duration : 16mn 26s
Bit rate mode : Variable
Bit rate : 8 338 Kbps
Maximum bit rate : 9 800 Kbps
Width : 720 pixels
Height : 480 pixels
Display aspect ratio : 16:9
Frame rate : 29.970 fps
Standard : NTSC
Color space : YUV
Chroma subsampling : 4:2:0
Bit depth : 8 bits
Scan type : Interlaced
Scan order : Top Field First
Compression mode : Lossy
Bits/(Pixel*Frame) : 0.805
Stream size : 981 MiB (96%)

Audio
ID : 189 (0xBD)-128 (0x80)
Format : AC-3
Format/Info : Audio Coding 3
Mode extension : CM (complete main)
Muxing mode : DVD-Video
Duration : 16mn 26s
Bit rate mode : Constant
Bit rate : 192 Kbps
Channel(s) : 2 channels
Channel positions : Front: L R
Sampling rate : 48.0 KHz
Bit depth : 16 bits
Compression mode : Lossy
Stream size : 22.6 MiB (2%)


Трекер:  [ 27-Окт-2013 21:53 ]

  

Скачать .torrent

Размер .torrent файла 13 KB


Размер: 2.5 GB
Хэш (hash) релиза: 3dd881c696c41c334baa0deeb9354a5e1aaacb03

bot

Топик был перенесен в форум Хентай | С цензурой

Перенес LinGr

Хотите добавить комментарий к записи скачать торрент Shiofuki Mermaid: Poolside no Hatsutaiken Брызги Русалки

!Обратная связь