Скачать порно через торрент Ласковая мамка Natasha Stone UnionPeer.org бесплатно онлайн HD качество

Скачать новое порно 2015, 2014 новинки через торрент UnionPeer.org

Порно торрент бесплатно ЮнионПир.орг

Если у вас наблюдаются проблемы со скриншотами, переходом по ссылками, скачиванием торрентов - проблемы в блокировщике рекламы AdBlock. #хорошегоДня!


Статистика раздачи
Размер:  1.57 GB   |    Зарегистрирован:  3 года 9 месяцев   |    .torrent скачан:  279 раз   |   
Раздают:  1  
   
Загрузка...
 
Автор Сообщение

LinGr

avatar LinGr


Ласковая мамка Natasha Stone (3 ролика)
Страна: USA
Жанр: Milf, Blondes, All sex, Anal, Oral, Creampie
Описание: Превосходный трах с Natasha Stone

Инфа по актрисе:
Дата рождения: 30 апреля 1978 г.
Место рождения: Форт Вейн, штат Индиана, США
Национальность: американка
Знак зодиака: телец
Период деятельности: с 2001 по 2010 гг. (первая съемка в 23 года)
Цвет волос: блондинка (в настоящее время перекрасилась в брюнетку)
Размеры: 34D-24-34
Рост: 160 см
Вес: 50 кг
Татуировки: замечены не были
Пирсинг: пупок, соски
Продолжительность: 00:23:34

Audio: Windows Media Audio 22050Hz stereo 32Kbps
ID : 1
Format : WMA
Format version : Version 2
Codec ID : 161
Codec ID/Info : Windows Media Audio
Description of the codec : Windows Media Audio 9.2 - 32 kbps, 22 kHz, stereo (A/V) 2-pass CBR
Duration : 23mn 34s
Bit rate mode : Constant
Bit rate : 32.0 Kbps
Channel(s) : 2 channels
Sampling rate : 22.05 KHz
Bit depth : 16 bits
Stream size : 5.40 MiB (2%)
Language : English (US)

Video: Windows Media Video 9 640x360 29.97fps 2000Kbps
ID : 2
Format : VC-1
Format profile : MP@ML
Codec ID : WMV3
Codec ID/Info : Windows Media Video 9
Codec ID/Hint : WMV3
Description of the codec : Windows Media Video 9
Duration : 23mn 34s
Bit rate mode : Constant
Bit rate : 2 000 Kbps
Width : 640 pixels
Height : 360 pixels
Display aspect ratio : 16:9
Frame rate : 29.970 fps
Bit depth : 8 bits
Scan type : Progressive
Compression mode : Lossy
Bits/(Pixel*Frame) : 0.290
Stream size : 337 MiB (98%)
Language : English (US)
Продолжительность: 00:33:00

Audio: Windows Media Audio 44100Hz stereo 128kbps
ID : 2
Format : WMA
Format version : Version 2
Codec ID : 161
Codec ID/Info : Windows Media Audio
Description of the codec : Windows Media Audio V8
Duration : 33mn 0s
Bit rate : 128 Kbps
Channel(s) : 2 channels
Sampling rate : 44.1 KHz
Bit depth : 16 bits
Stream size : 30.2 MiB (7%)

Video: Windows Media Video 8 640x480 1659kbps
ID : 1
Format : WMV2
Codec ID : WMV2
Codec ID/Info : Windows Media Video 8
Description of the codec : wmv2
Duration : 33mn 0s
Bit rate : 1 655 Kbps
Width : 640 pixels
Height : 480 pixels
Display aspect ratio : 4:3
Frame rate : 30.000 fps
Bit depth : 8 bits
Bits/(Pixel*Frame) : 0.180
Stream size : 391 MiB (89%)
Продолжительность: 00:32:51

Audio: AAC 44100Hz stereo 1411kbps
ID : 4
Format : AAC
Format/Info : Advanced Audio Codec
Format profile : LC
Codec ID : 40
Duration : 32mn 51s
Bit rate mode : Variable
Bit rate : 128 Kbps
Maximum bit rate : 166 Kbps
Channel(s) : 2 channels
Channel positions : Front: L R
Sampling rate : 44.1 KHz
Compression mode : Lossy
Stream size : 30.1 MiB (4%)
Language : English
Encoded date : UTC 2009-10-20 21:18:30
Tagged date : UTC 2009-10-20 21:18:30

Video: MPEG4 Video (H264) 1280x720 30.00fps
ID : 3
Format : AVC
Format/Info : Advanced Video Codec
Format profile : Main@L3.2
Format settings, CABAC : No
Format settings, ReFrames : 6 frames
Codec ID : avc1
Codec ID/Info : Advanced Video Coding
Duration : 32mn 51s
Bit rate mode : Variable
Bit rate : 1 576 Kbps
Maximum bit rate : 1 573 Kbps
Width : 1 280 pixels
Height : 720 pixels
Display aspect ratio : 16:9
Frame rate mode : Constant
Frame rate : 30.000 fps
Standard : Component
Color space : YUV
Chroma subsampling : 4:2:0
Bit depth : 8 bits
Scan type : Progressive
Bits/(Pixel*Frame) : 0.057
Stream size : 370 MiB (45%)
Language : English
Encoded date : UTC 2009-10-20 21:18:30
Tagged date : UTC 2009-10-20 21:18:30


Трекер:  [ 26-Окт-2013 18:12 ]

  

Скачать .torrent

Размер .torrent файла 17 KB


Размер: 1.57 GB
Хэш (hash) релиза: 28dcc7e8d3c896f65689b373b2e06ddef2e44248

Еще никто не оставлял запись к записи скачать торрент Ласковая мамка Natasha Stone . Будь первым!

!Обратная связь