Скачать порно через торрент Koikishi Purely Kiss The Animation Влюблённый рыцарь - Невинный поцелуй UnionPeer.org бесплатно онлайн HD качество

Скачать новое порно 2015, 2014 новинки через торрент UnionPeer.org

Порно торрент бесплатно ЮнионПир.орг

Если у вас наблюдаются проблемы со скриншотами, переходом по ссылками, скачиванием торрентов - проблемы в блокировщике рекламы AdBlock. #хорошегоДня!


Статистика раздачи
Размер:  2.98 GB   |    Зарегистрирован:  4 года   |    .torrent скачан:  103 раза   |   
Раздают:  1  
   
Загрузка...
 
Автор Сообщение

LinGr

avatar LinGr


恋騎士Purely☆Kiss The Animation | Koikishi Purely Kiss The Animation
Влюблённый рыцарь - Невинный поцелуй

Год выпуска: 2013
Страна: Япония
Жанр: fantasy, knight, oral, romance, straight, virgins, x-ray
Продолжительность: >1 эп. 30 мин.
Субтитры: Отсутствуют
Цензура: Присутствует
Студия: Pink Pineapple
Описание:
Based on the erotic game by Effordom Soft.
Информационные ссылки: AniDB || MAL || World Art || ХентайМаг
Исходник: DVD-5
Видео: MPEG2 | NTSC | 16x9 | 720x480 | 9800 Kbps
Аудио JAP: AC-3 | 48000Hz | 192 Kbps | 2ch
01. Erushia Havens
General
Complete name : L:\VIDEO_TS\VTS_01_1.VOB
Format : MPEG-PS
File size : 1 024 MiB
Duration : 16mn 22s
Overall bit rate mode : Variable
Overall bit rate : 8 739 Kbps

Video
ID : 224 (0xE0)
Format : MPEG Video
Format version : Version 2
Format profile : Main@Main
Format settings, BVOP : Yes
Format settings, Matrix : Custom
Duration : 16mn 22s
Bit rate mode : Variable
Bit rate : 8 373 Kbps
Maximum bit rate : 9 800 Kbps
Width : 720 pixels
Height : 480 pixels
Display aspect ratio : 16:9
Frame rate : 29.970 fps
Standard : NTSC
Color space : YUV
Chroma subsampling : 4:2:0
Bit depth : 8 bits
Scan type : Interlaced
Scan order : Top Field First
Compression mode : Lossy
Bits/(Pixel*Frame) : 0.808
Stream size : 981 MiB (96%)

Audio
ID : 189 (0xBD)-128 (0x80)
Format : AC-3
Format/Info : Audio Coding 3
Mode extension : CM (complete main)
Muxing mode : DVD-Video
Duration : 16mn 22s
Bit rate mode : Constant
Bit rate : 192 Kbps
Channel(s) : 2 channels
Channel positions : Front: L R
Sampling rate : 48.0 KHz
Bit depth : 16 bits
Compression mode : Lossy
Stream size : 22.5 MiB (2%)


Трекер:  [ 25-Окт-2013 18:26 ]

  

Скачать .torrent

Размер .torrent файла 15 KB


Размер: 2.98 GB
Хэш (hash) релиза: e253e57af6ddbc0d7d521c90c480089dd8acc286

Торренты, похожие на Koikishi Purely Kiss The Animation Влюблённый рыцарь - Невинный поцелуй скачать торрент

Форум Название Автор Размер S L Добавлен
Хентай, порно и эротические мультфильмы ·· Koikishi Purely Kiss The Animation / Влюблённый рыцарь - Невинный поцелуй (Nishikawa Takashi / Pink Pineapple) (ep. 1-2 of 2) [cen] [2013 г., Fantasy, Knight, Oral, Romance, Straight, Virgins, X-Ray, 2xDVD5] [jap] Galfimbul 53593865544.99 GB 0 0 1489699954

00:32

17-Мар-17

Хентай, порно и эротические мультфильмы ·· Koikishi Purely Kiss The Animation / Влюблённый рыцарь - Невинный поцелуй (Nishikawa Takashi / Pink Pineapple) (ep. 1-2 of 2) [cen] [2013 г., Fantasy, Knight, Oral, Romance, Straight, Virgins, X-Ray, DVD5] [jap] Galfimbul 53595897304.99 GB 0 0 1405022841

23:07

10-Июл-14

Хентай, порно и эротические мультфильмы ·· Koikishi Purely Kiss The Animation / Влюбленный рыцарь - Невинный поцелуй (Seven) (ep. 1-2 of 2) [cen] [2013 г. Romance, Fantasy, Knight, Virgin, Straight, Oral, X-Ray, Anal sex, Incest, DVDRip] [jap / eng / ger / chi / rus] Galfimbul 683130003651 MB 0 0 1405022542

23:02

10-Июл-14

Хентай | С цензурой ·· Koikishi Purely Kiss The Animation / Влюбленный рыцарь - Невинный поцелуй (Seven) (ep. 1-2 of 2) [cen] [2013 г. Romance, Fantasy, Knight, Virgin, Straight, Oral, X-Ray, Anal sex, Incest, DVDRip] [jap / eng / ger(1) / rus] Galfimbul 717052187684 MB 2 0 1397325150

20:52

12-Апр-14

Хентай | С цензурой ·· Koikishi Purely Kiss The Animation / Влюбленный рыцарь - Невинный поцелуй (Seven) (ep. 1) [cen] [2013 г. Romance, Fantasy, Knight, Virgin, Straight, Oral, X-Ray, DVDRip] [jap / eng / ger / rus] LinGr 297796727284 MB 0 0 1384721458

23:50

17-Ноя-13

Хентай | С цензурой ·· Koikishi Purely Kiss The Animation / Влюбленный рыцарь - Невинный поцелуй (Seven) (ep. 1) [cen] [2013 г. Romance, Fantasy, Knight, Virgin, Straight, Oral, X-Ray, DVDRip] [jap / eng / ger] LinGr 450330833429 MB 0 0 1382453117

17:45

22-Окт-13

bot

Топик был перенесен в форум Хентай | С цензурой

Перенес LinGr

Хотите добавить комментарий к записи скачать торрент Koikishi Purely Kiss The Animation Влюблённый рыцарь - Невинный поцелуй

!Обратная связь