Скачать порно через торрент Смачный Глубокий Минет От Двух Брюнеток UnionPeer.org бесплатно онлайн HD качество

Скачать новое порно 2015, 2014 новинки через торрент UnionPeer.org

Порно торрент бесплатно ЮнионПир.орг

Если у вас наблюдаются проблемы со скриншотами, переходом по ссылками, скачиванием торрентов - проблемы в блокировщике рекламы AdBlock. #хорошегоДня!


Статистика раздачи
Размер:  113 MB   |    Зарегистрирован:  3 года 10 месяцев   |    .torrent скачан:  285 раз   |   
Раздают:  1  
   
Загрузка...
 
Автор Сообщение

LinGr

avatar LinGr



Смачный Глубокий Минет От Двух Брюнеток

Год производства: 1995 г.
Жанр: Brunette, Threesome, Oral, Deepthroat, Blowjob, Cumshot, Big Dick
Продолжительность: 00:04:02

Описание:
2 томные брюнетистые пухлогубые красотки ублажают трахаря с большим толстым членом - сосут,
причмокивают, лижуться, наслаждаются горячей набухшей залупой за щекой,
играют язычками со стволом и яйцами и надрачивают его до брызг спермы в похотливые открытые ротики .
Качество видео: DVDRip
Формат видео: AVI
Видео кодек: MPEG2
Аудио кодек: PCM
Format : AVI
Format/Info : Audio Video Interleave
File size : 113 MiB
Duration : 4mn 2s
Overall bit rate : 3 928 Kbps
Writing application : Lavf51.12.1

Video
Format : S-Mpeg 4 v2
Codec ID : MP42
Codec ID/Info : Microsoft MPEG-4 V2
Duration : 4mn 2s
Bit rate : 2 504 Kbps
Width : 544 pixels
Height : 400 pixels
Display aspect ratio : 4:3
Frame rate : 25.000 fps
Resolution : 24 bits
Bits/(Pixel*Frame) : 0.460
Stream size : 72.2 MiB (64%)

Audio
Format : PCM
Format settings, Endianness : Little
Format settings, Sign : Unsigned
Codec ID : 1
Codec ID/Hint : Microsoft
Duration : 4mn 2s
Bit rate mode : Constant
Bit rate : 1 411.2 Kbps
Channel(s) : 2 channels
Sampling rate : 44.1 KHz
Resolution : 16 bits
Stream size : 40.7 MiB (36%)
Interleave, duration : 24 ms (0.60 video frame)


Трекер:  [ 23-Окт-2013 19:15 ]

  

Скачать .torrent

Размер .torrent файла 18 KB


Размер: 113 MB
Хэш (hash) релиза: 871dcbca2ff19d6b7dd39989a8d44a74dbf1f322

Еще никто не оставлял запись к записи скачать торрент Смачный Глубокий Минет От Двух Брюнеток . Будь первым!

!Обратная связь