A2M: The Art Of Ass To Mouth 12 12 UnionPeer.org HD

2015, 2014 UnionPeer.org

.

, , - AdBlock. #!


23.18 GB   |    :  3 10    |    .torrent :  182    |   
1  
   
...
 

LinGr

avatar LinGr


A2M: The Art Of Ass To Mouth 12 12
: 2007 .
: United States
: Anal, Double Penetration, Gonzo
: 02:53:25

: Anabolic Video
: Ivan

:
: Carly Parker, Dana DeArmond, Nadia Styles, Samantha Sin, Shyla Stylez & Veronica Jett. Brian Surewood, Chris Charming, John Strong, Mark Ashley, Sascha & Steven French

:
Ask any girl and she's sure to tell you 'There's nothing more romantic than ass-To-mouth.
'Thanks to Ivan for capturing some of the most incredible A-2-M'S ever seen (95 Total!) But that's not all.
Ivan doesn't stop with A-2-M'S, he also captures (for our enjoyment) an assortment of Double-Penetrations, Ass-to-Mouth!
Cum eating and stretched sphincters abound! All for you, our Ass-2-Mouth obsessed devoted viewers!
A plethora of extremely nasty sex and we're proud of it! Enjoy!

:
. :
* Interactive Menus
* Chapter Selection
* Photo Gallery
* Cum Shot Recap
* Behind the Scenes

HD : 1080p
: Blu-Ray
: Blu-Ray Video
: BDMV
: H.264/AVC
: AC3
: MPEG-4 AVC Video / ~16500 Mbps / 1920x1080p / 23,976 fps / 16:9
: Dolby Digital Audio 5.1 / 48000 Hz / 224 kbps
Disc Title: A2M #12 (2008) 1080p Blu-ray DD2.0 AVC-TrollHD XXX
Disc Size: 24885826528 bytes
Protection: AACS
BD-Java: No
BDInfo: 0.5.8

Notes:

********************
PLAYLIST: 00001.MPLS
********************

<--- BEGIN FORUMS PASTE --->
Total Video
Title Codec Length Movie Size Disc Size Bitrate Bitrate Main Audio Track Secondary Audio Track
----- ------ ------- -------------- -------------- ------- ------- ------------------ ---------------------
00001.MPLS AVC 2:53:25 23114575104 24885826528 17,77 16,50 DD AC3 2.0 224Kbps
DISC INFO:

Disc Title: A2M #12 (2008) 1080p Blu-ray DD2.0 AVC-TrollHD XXX
Disc Size: 24885826528 bytes
Protection: AACS
BD-Java: No
BDInfo: 0.5.8

PLAYLIST REPORT:

Name: 00001.MPLS
Length: 2:53:25.686 (h:m:s.ms)
Size: 23114575104 bytes
Total Bitrate: 17,77 Mbps

VIDEO:

Codec Bitrate Description
----- ------- -----------
MPEG-4 AVC Video 16500 kbps 1080p / 23,976 fps / 16:9 / High Profile 4.1

AUDIO:

Codec Language Bitrate Description
----- -------- ------- -----------
Dolby Digital Audio English 224 kbps 2.0 / 48 kHz / 224 kbps / DN -4dB
Dolby Digital Audio English 224 kbps 2.0 / 48 kHz / 224 kbps / DN -4dB

FILES:

Name Time In Length Size Total Bitrate
---- ------- ------ ---- -------------
00004.M2TS 0:00:00.000 0:00:14.014 27666432 15794
00000.M2TS 0:00:14.014 1:34:18.569 12307626240 17400
00000.M2TS 1:34:32.583 1:18:30.789 10774819200 18298
00000.M2TS 2:53:03.373 0:00:22.313 4463232 1597

CHAPTERS:

Number Time In Length Avg Video Rate Max 1-Sec Rate Max 1-Sec Time Max 5-Sec Rate Max 5-Sec Time Max 10Sec Rate Max 10Sec Time Avg Frame Size Max Frame Size Max Frame Time
------ ------- ------ -------------- -------------- -------------- -------------- -------------- -------------- -------------- -------------- -------------- --------------
1 0:00:00.000 0:03:29.125 15649 kbps 28480 kbps 00:01:51.820 22959 kbps 00:01:43.603 22716 kbps 00:01:43.603 81569 bytes 290318 bytes 00:00:11.261
2 0:03:29.125 0:03:35.757 14838 kbps 25941 kbps 00:04:59.132 20549 kbps 00:06:59.377 19224 kbps 00:06:54.872 77361 bytes 236663 bytes 00:06:47.406
3 0:07:04.882 0:01:58.076 18898 kbps 26394 kbps 00:07:32.493 21274 kbps 00:08:37.016 20338 kbps 00:08:35.306 98528 bytes 204380 bytes 00:08:28.132
4 0:09:02.959 0:05:24.240 19589 kbps 28590 kbps 00:13:13.709 25983 kbps 00:09:26.399 23991 kbps 00:09:21.102 102126 bytes 212332 bytes 00:11:45.204
5 0:14:27.199 0:07:31.325 19623 kbps 28716 kbps 00:16:51.885 26516 kbps 00:21:10.602 24586 kbps 00:21:09.601 102306 bytes 213029 bytes 00:20:19.217
6 0:21:58.525 0:09:35.157 19319 kbps 28791 kbps 00:28:55.859 25861 kbps 00:28:22.450 25080 kbps 00:28:20.907 100722 bytes 209561 bytes 00:28:19.197
7 0:31:33.683 0:00:57.891 12989 kbps 26964 kbps 00:32:15.183 20114 kbps 00:32:13.473 17604 kbps 00:32:09.844 67720 bytes 179188 bytes 00:32:07.717
8 0:32:31.574 0:00:43.251 11999 kbps 19226 kbps 00:32:59.852 16190 kbps 00:32:58.226 15131 kbps 00:32:55.264 62559 bytes 233192 bytes 00:32:31.741
9 0:33:14.826 0:03:36.591 13685 kbps 24841 kbps 00:35:29.001 17614 kbps 00:36:42.617 16409 kbps 00:33:53.197 71349 bytes 199076 bytes 00:35:46.269
10 0:36:51.417 0:02:10.630 16530 kbps 25355 kbps 00:38:45.156 21541 kbps 00:38:41.402 18680 kbps 00:38:41.402 86182 bytes 187228 bytes 00:38:45.740
11 0:39:02.048 0:06:07.909 14981 kbps 24545 kbps 00:42:20.788 22145 kbps 00:40:28.592 21076 kbps 00:40:28.134 78104 bytes 201676 bytes 00:43:03.789
12 0:45:09.957 0:06:26.677 15590 kbps 25111 kbps 00:46:46.804 19839 kbps 00:50:52.883 18545 kbps 00:48:16.143 81278 bytes 173871 bytes 00:46:47.554
13 0:51:36.635 0:10:52.485 15922 kbps 24649 kbps 00:55:51.014 20010 kbps 00:55:50.013 19060 kbps 00:54:54.833 83012 bytes 179852 bytes 00:56:42.440
14 1:02:29.120 0:01:10.153 15486 kbps 20546 kbps 01:03:26.177 17484 kbps 01:03:24.258 16914 kbps 01:03:21.339 80738 bytes 172283 bytes 01:03:36.187
15 1:03:39.273 0:01:23.249 15298 kbps 25051 kbps 01:04:08.970 19604 kbps 01:04:05.883 17655 kbps 01:04:26.195 79759 bytes 215103 bytes 01:03:39.649
16 1:05:02.523 0:01:33.176 12117 kbps 21652 kbps 01:05:02.690 15957 kbps 01:06:30.069 13834 kbps 01:05:36.390 63174 bytes 174947 bytes 01:05:02.899
17 1:06:35.700 0:02:57.343 13992 kbps 22621 kbps 01:09:16.735 17579 kbps 01:09:12.731 16317 kbps 01:09:11.564 72948 bytes 180369 bytes 01:08:35.820
18 1:09:33.043 0:03:15.111 17149 kbps 24718 kbps 01:11:09.265 21778 kbps 01:10:01.906 21273 kbps 01:12:05.195 89407 bytes 170497 bytes 01:11:11.767
19 1:12:48.155 0:11:09.251 15065 kbps 24387 kbps 01:16:50.647 21257 kbps 01:23:07.440 20972 kbps 01:23:03.478 78541 bytes 182170 bytes 01:18:41.133
20 1:23:57.407 0:09:04.919 14275 kbps 23252 kbps 01:24:38.031 21232 kbps 01:29:34.994 20555 kbps 01:29:32.700 74424 bytes 190790 bytes 01:31:31.027
21 1:33:02.326 0:00:27.027 11855 kbps 16854 kbps 01:33:04.579 13914 kbps 01:33:23.097 13850 kbps 01:33:18.092 61805 bytes 194557 bytes 01:33:27.351
22 1:33:29.353 0:01:03.229 11402 kbps 22540 kbps 01:34:26.285 19553 kbps 01:34:26.035 15791 kbps 01:34:21.489 59445 bytes 195137 bytes 01:33:45.911
23 1:34:32.583 0:05:56.397 15367 kbps 27238 kbps 01:34:59.610 22824 kbps 01:39:43.102 22457 kbps 01:39:41.850 80119 bytes 225871 bytes 01:34:38.172
24 1:40:28.981 0:03:48.978 15138 kbps 23250 kbps 01:42:48.287 19987 kbps 01:43:25.115 18394 kbps 01:40:28.981 78922 bytes 202275 bytes 01:40:57.134
25 1:44:17.960 0:03:52.815 15564 kbps 24410 kbps 01:47:32.612 21977 kbps 01:44:20.254 20323 kbps 01:44:17.960 81145 bytes 195223 bytes 01:47:33.447
26 1:48:10.775 0:04:53.710 15553 kbps 23563 kbps 01:48:56.696 21768 kbps 01:52:57.979 19550 kbps 01:52:54.476 81088 bytes 200831 bytes 01:48:25.207
27 1:53:04.486 0:05:02.844 15960 kbps 23807 kbps 01:55:18.578 21271 kbps 01:53:51.324 19330 kbps 01:56:22.016 83210 bytes 191096 bytes 01:57:24.037
28 1:58:07.330 0:00:58.641 13528 kbps 23273 kbps 01:58:09.415 18919 kbps 01:58:09.290 16022 kbps 01:58:09.457 70528 bytes 184728 bytes 01:58:13.169
29 1:59:05.972 0:01:20.872 16198 kbps 28769 kbps 02:00:19.712 21818 kbps 02:00:19.545 19861 kbps 02:00:15.499 84452 bytes 235449 bytes 01:59:10.935
30 2:00:26.844 0:04:08.164 21581 kbps 28838 kbps 02:01:22.441 27353 kbps 02:02:49.278 26621 kbps 02:02:48.736 112513 bytes 201899 bytes 02:02:04.025
31 2:04:35.009 0:05:31.289 20679 kbps 28297 kbps 02:09:12.828 27449 kbps 02:09:34.057 26963 kbps 02:09:46.403 107810 bytes 181474 bytes 02:06:15.734
32 2:10:06.298 0:04:43.408 21257 kbps 28514 kbps 02:12:44.164 26961 kbps 02:13:16.446 26075 kbps 02:13:12.150 110824 bytes 182279 bytes 02:14:09.958
33 2:14:49.706 0:06:18.044 20313 kbps 29188 kbps 02:18:44.733 27447 kbps 02:18:44.858 25553 kbps 02:20:55.155 105905 bytes 190841 bytes 02:19:23.772
34 2:21:07.750 0:04:56.587 15972 kbps 27922 kbps 02:21:09.836 27078 kbps 02:21:13.965 26255 kbps 02:21:13.798 83271 bytes 199830 bytes 02:21:43.286
35 2:26:04.338 0:03:59.489 14255 kbps 24600 kbps 02:26:22.732 19761 kbps 02:27:34.095 18300 kbps 02:27:17.078 74317 bytes 218849 bytes 02:27:45.106
36 2:30:03.828 0:04:50.248 14955 kbps 24840 kbps 02:34:15.162 21868 kbps 02:34:45.818 20256 kbps 02:32:12.206 77967 bytes 176634 bytes 02:33:44.506
37 2:34:54.076 0:08:23.169 16259 kbps 25644 kbps 02:38:14.109 23614 kbps 02:38:10.647 22978 kbps 02:38:06.643 84768 bytes 208754 bytes 02:38:27.664
38 2:43:17.245 0:04:05.745 15390 kbps 23812 kbps 02:46:51.251 21273 kbps 02:44:23.603 19567 kbps 02:44:23.311 80236 bytes 187072 bytes 02:46:09.876
39 2:47:22.991 0:02:49.502 15195 kbps 22334 kbps 02:49:51.681 18729 kbps 02:50:05.612 18623 kbps 02:50:00.440 79219 bytes 190341 bytes 02:47:32.959
40 2:50:12.493 0:03:13.193 17727 kbps 27824 kbps 02:52:34.677 25215 kbps 02:52:30.798 24452 kbps 02:52:25.668 92419 bytes 228842 bytes 02:51:34.951

STREAM DIAGNOSTICS:

File PID Type Codec Language Seconds Bitrate Bytes Packets
---- --- ---- ----- -------- -------------- -------------- ------------- -----
00004.M2TS 4113 (0x1011) 0x1B AVC 13,889 14966 25983149 141419
00004.M2TS 4352 (0x1100) 0x81 AC3 eng (English) 13,889 226 392448 2190
00000.M2TS 4113 (0x1011) 0x1B AVC 10420,994 16500 21492855094 116955996
00000.M2TS 4352 (0x1100) 0x81 AC3 eng (English) 10420,994 224 291786880 1628275
00000.M2TS 4353 (0x1101) 0x81 AC3 eng (English) 10420,994 224 291786880 1628275
<---- END FORUMS PASTE ---->

QUICK SUMMARY:

Disc Title: A2M #12 (2008) 1080p Blu-ray DD2.0 AVC-TrollHD XXX
Disc Size: 24885826528 bytes
Protection: AACS
BD-Java: No
Playlist: 00001.MPLS
Size: 23114575104 bytes
Length: 2:53:25.686
Total Bitrate: 17,77 Mbps
Video: MPEG-4 AVC Video / 16500 kbps / 1080p / 23,976 fps / 16:9 / High Profile 4.1
Audio: English / Dolby Digital Audio / 2.0 / 48 kHz / 224 kbps / DN -4dB
Audio: English / Dolby Digital Audio / 2.0 / 48 kHz / 224 kbps / DN -4dB

********************
PLAYLIST: 00007.MPLS
********************

<--- BEGIN FORUMS PASTE --->
Total Video
Title Codec Length Movie Size Disc Size Bitrate Bitrate Main Audio Track Secondary Audio Track
----- ------ ------- -------------- -------------- ------- ------- ------------------ ---------------------
00007.MPLS AVC 0:08:57 1022883264 24885826528 15,23 14,06 DD AC3 2.0 224Kbps
DISC INFO:

Disc Title: A2M #12 (2008) 1080p Blu-ray DD2.0 AVC-TrollHD XXX
Disc Size: 24885826528 bytes
Protection: AACS
BD-Java: No
BDInfo: 0.5.8

PLAYLIST REPORT:

Name: 00007.MPLS
Length: 0:08:57.453 (h:m:s.ms)
Size: 1022883264 bytes
Total Bitrate: 15,23 Mbps

VIDEO:

Codec Bitrate Description
----- ------- -----------
MPEG-4 AVC Video 14059 kbps 1080p / 23,976 fps / 16:9 / High Profile 4.1

AUDIO:

Codec Language Bitrate Description
----- -------- ------- -----------
Dolby Digital Audio English 224 kbps 2.0 / 48 kHz / 224 kbps / DN -4dB
Dolby Digital Audio English 224 kbps 2.0 / 48 kHz / 224 kbps / DN -4dB

FILES:

Name Time In Length Size Total Bitrate
---- ------- ------ ---- -------------
00000.M2TS 0:00:00.000 0:01:48.942 205547136 15088
00000.M2TS 0:01:48.942 0:00:41.249 67132800 13020
00000.M2TS 0:02:30.191 0:01:19.204 162704640 16434
00000.M2TS 0:03:49.395 0:01:22.582 171761472 16639
00000.M2TS 0:05:11.978 0:01:03.229 98521920 12465
00000.M2TS 0:06:15.208 0:02:42.245 317215296 15637

CHAPTERS:

Number Time In Length Avg Video Rate Max 1-Sec Rate Max 1-Sec Time Max 5-Sec Rate Max 5-Sec Time Max 10Sec Rate Max 10Sec Time Avg Frame Size Max Frame Size Max Frame Time
------ ------- ------ -------------- -------------- -------------- -------------- -------------- -------------- -------------- -------------- -------------- --------------
1 0:00:00.000 0:01:48.942 13935 kbps 25941 kbps 00:01:30.006 20465 kbps 00:01:28.755 18783 kbps 00:01:28.713 72622 bytes 230788 bytes 00:00:23.982
2 0:01:48.942 0:00:41.249 15268 kbps 23442 kbps 00:02:13.591 18291 kbps 00:02:13.633 17699 kbps 00:02:06.584 79599 bytes 231149 bytes 00:01:56.199
3 0:02:30.191 0:01:19.204 16575 kbps 23947 kbps 00:03:48.394 20701 kbps 00:03:31.753 19610 kbps 00:03:29.792 86368 bytes 236663 bytes 00:03:18.281
4 0:03:49.395 0:01:22.582 19159 kbps 26394 kbps 00:04:03.368 21271 kbps 00:05:06.389 20166 kbps 00:04:31.521 99939 bytes 204380 bytes 00:04:59.007
5 0:05:11.978 0:01:03.229 20225 kbps 27794 kbps 00:06:07.909 25983 kbps 00:05:57.273 23991 kbps 00:05:51.976 105443 bytes 202261 bytes 00:05:34.542
6 0:06:15.208 0:02:42.245 19386 kbps 28441 kbps 00:08:14.494 25890 kbps 00:06:23.216 23610 kbps 00:06:19.379 101068 bytes 212332 bytes 00:08:16.078

STREAM DIAGNOSTICS:

File PID Type Codec Language Seconds Bitrate Bytes Packets
---- --- ---- ----- -------- -------------- -------------- ------------- -----
00000.M2TS 4113 (0x1011) 0x1B AVC 10420,994 16500 21492855094 116955996
00000.M2TS 4352 (0x1100) 0x81 AC3 eng (English) 10420,994 224 291786880 1628275
00000.M2TS 4353 (0x1101) 0x81 AC3 eng (English) 10420,994 224 291786880 1628275
<---- END FORUMS PASTE ---->

QUICK SUMMARY:

Disc Title: A2M #12 (2008) 1080p Blu-ray DD2.0 AVC-TrollHD XXX
Disc Size: 24885826528 bytes
Protection: AACS
BD-Java: No
Playlist: 00007.MPLS
Size: 1022883264 bytes
Length: 0:08:57.453
Total Bitrate: 15,23 Mbps
Video: MPEG-4 AVC Video / 14059 kbps / 1080p / 23,976 fps / 16:9 / High Profile 4.1
Audio: English / Dolby Digital Audio / 2.0 / 48 kHz / 224 kbps / DN -4dB
Audio: English / Dolby Digital Audio / 2.0 / 48 kHz / 224 kbps / DN -4dB

********************
PLAYLIST: 00006.MPLS
********************

<--- BEGIN FORUMS PASTE --->
Total Video
Title Codec Length Movie Size Disc Size Bitrate Bitrate Main Audio Track Secondary Audio Track
----- ------ ------- -------------- -------------- ------- ------- ------------------ ---------------------
00006.MPLS AVC 0:04:50 596128704 24885826528 16,42 15,20 DD AC3 2.0 224Kbps
DISC INFO:

Disc Title: A2M #12 (2008) 1080p Blu-ray DD2.0 AVC-TrollHD XXX
Disc Size: 24885826528 bytes
Protection: AACS
BD-Java: No
BDInfo: 0.5.8

PLAYLIST REPORT:

Name: 00006.MPLS
Length: 0:04:50.415 (h:m:s.ms)
Size: 596128704 bytes
Total Bitrate: 16,42 Mbps

VIDEO:

Codec Bitrate Description
----- ------- -----------
MPEG-4 AVC Video 15200 kbps 1080p / 23,976 fps / 16:9 / High Profile 4.1

AUDIO:

Codec Language Bitrate Description
----- -------- ------- -----------
Dolby Digital Audio English 224 kbps 2.0 / 48 kHz / 224 kbps / DN -4dB
Dolby Digital Audio English 224 kbps 2.0 / 48 kHz / 224 kbps / DN -4dB

FILES:

Name Time In Length Size Total Bitrate
---- ------- ------ ---- -------------
00000.M2TS 0:00:00.000 0:00:52.469 100646208 15346
00000.M2TS 0:00:52.469 0:01:10.153 146698368 16719
00000.M2TS 0:02:02.622 0:00:26.901 43569600 12957
00000.M2TS 0:02:29.524 0:00:29.070 52044096 14302
00000.M2TS 0:02:58.595 0:00:57.974 150261120 20720
00000.M2TS 0:03:56.569 0:00:53.845 102909312 15290

CHAPTERS:

Number Time In Length Avg Video Rate Max 1-Sec Rate Max 1-Sec Time Max 5-Sec Rate Max 5-Sec Time Max 10Sec Rate Max 10Sec Time Avg Frame Size Max Frame Size Max Frame Time
------ ------- ------ -------------- -------------- -------------- -------------- -------------- -------------- -------------- -------------- -------------- --------------
1 0:00:00.000 0:00:52.469 14176 kbps 26964 kbps 00:00:41.499 20114 kbps 00:00:39.789 17604 kbps 00:00:36.161 73847 bytes 179188 bytes 00:00:34.034
2 0:00:52.469 0:01:10.153 12268 kbps 19226 kbps 00:01:26.169 16741 kbps 00:01:48.024 16344 kbps 00:01:50.276 63961 bytes 233192 bytes 00:00:58.057
3 0:02:02.622 0:00:26.901 15919 kbps 19495 kbps 00:02:20.849 16925 kbps 00:02:18.263 16409 kbps 00:02:19.514 82994 bytes 193566 bytes 00:02:11.047
4 0:02:29.524 0:00:29.070 14798 kbps 19265 kbps 00:02:31.025 16630 kbps 00:02:41.077 16121 kbps 00:02:36.865 77151 bytes 194433 bytes 00:02:37.866
5 0:02:58.595 0:00:57.974 12210 kbps 24841 kbps 00:03:55.318 14454 kbps 00:03:51.522 14144 kbps 00:03:46.559 63657 bytes 196116 bytes 00:03:01.514
6 0:03:56.569 0:00:53.845 12914 kbps 23833 kbps 00:03:59.322 15175 kbps 00:04:26.224 14587 kbps 00:04:20.969 67329 bytes 199076 bytes 00:04:12.585

STREAM DIAGNOSTICS:

File PID Type Codec Language Seconds Bitrate Bytes Packets
---- --- ---- ----- -------- -------------- -------------- ------------- -----
00000.M2TS 4113 (0x1011) 0x1B AVC 10420,994 16500 21492855094 116955996
00000.M2TS 4352 (0x1100) 0x81 AC3 eng (English) 10420,994 224 291786880 1628275
00000.M2TS 4353 (0x1101) 0x81 AC3 eng (English) 10420,994 224 291786880 1628275
<---- END FORUMS PASTE ---->

QUICK SUMMARY:

Disc Title: A2M #12 (2008) 1080p Blu-ray DD2.0 AVC-TrollHD XXX
Disc Size: 24885826528 bytes
Protection: AACS
BD-Java: No
Playlist: 00006.MPLS
Size: 596128704 bytes
Length: 0:04:50.415
Total Bitrate: 16,42 Mbps
Video: MPEG-4 AVC Video / 15200 kbps / 1080p / 23,976 fps / 16:9 / High Profile 4.1
Audio: English / Dolby Digital Audio / 2.0 / 48 kHz / 224 kbps / DN -4dB
Audio: English / Dolby Digital Audio / 2.0 / 48 kHz / 224 kbps / DN -4dB

********************
PLAYLIST: 00000.MPLS
********************

<--- BEGIN FORUMS PASTE --->
Total Video
Title Codec Length Movie Size Disc Size Bitrate Bitrate Main Audio Track Secondary Audio Track
----- ------ ------- -------------- -------------- ------- ------- ------------------ ---------------------
00000.MPLS AVC 0:00:36 32129664 24885826528 7,08 6,34 DD AC3 2.0 224Kbps
DISC INFO:

Disc Title: A2M #12 (2008) 1080p Blu-ray DD2.0 AVC-TrollHD XXX
Disc Size: 24885826528 bytes
Protection: AACS
BD-Java: No
BDInfo: 0.5.8

PLAYLIST REPORT:

Name: 00000.MPLS
Length: 0:00:36.327 (h:m:s.ms)
Size: 32129664 bytes
Total Bitrate: 7,08 Mbps

VIDEO:

Codec Bitrate Description
----- ------- -----------
MPEG-4 AVC Video 6335 kbps 1080p / 23,976 fps / 16:9 / High Profile 4.1

AUDIO:

Codec Language Bitrate Description
----- -------- ------- -----------
Dolby Digital Audio English 224 kbps 2.0 / 48 kHz / 224 kbps / DN -4dB
Dolby Digital Audio English 224 kbps 2.0 / 48 kHz / 224 kbps / DN -4dB

FILES:

Name Time In Length Size Total Bitrate
---- ------- ------ ---- -------------
00000.M2TS 0:00:00.000 0:00:22.313 4463232 1597
00004.M2TS 0:00:22.313 0:00:14.014 27666432 15794

CHAPTERS:

Number Time In Length Avg Video Rate Max 1-Sec Rate Max 1-Sec Time Max 5-Sec Rate Max 5-Sec Time Max 10Sec Rate Max 10Sec Time Avg Frame Size Max Frame Size Max Frame Time
------ ------- ------ -------------- -------------- -------------- -------------- -------------- -------------- -------------- -------------- -------------- --------------
1 0:00:00.000 0:00:36.327 3365 kbps 13546 kbps 00:00:29.070 10653 kbps 00:00:29.070 8672 kbps 00:00:26.234 17523 bytes 187274 bytes 00:00:29.112

STREAM DIAGNOSTICS:

File PID Type Codec Language Seconds Bitrate Bytes Packets
---- --- ---- ----- -------- -------------- -------------- ------------- -----
00000.M2TS 4113 (0x1011) 0x1B AVC 10420,994 16500 21492855094 116955996
00000.M2TS 4352 (0x1100) 0x81 AC3 eng (English) 10420,994 224 291786880 1628275
00000.M2TS 4353 (0x1101) 0x81 AC3 eng (English) 10420,994 224 291786880 1628275
00004.M2TS 4113 (0x1011) 0x1B AVC 13,889 14966 25983149 141419
00004.M2TS 4352 (0x1100) 0x81 AC3 eng (English) 13,889 226 392448 2190
<---- END FORUMS PASTE ---->

QUICK SUMMARY:

Disc Title: A2M #12 (2008) 1080p Blu-ray DD2.0 AVC-TrollHD XXX
Disc Size: 24885826528 bytes
Protection: AACS
BD-Java: No
Playlist: 00000.MPLS
Size: 32129664 bytes
Length: 0:00:36.327
Total Bitrate: 7,08 Mbps
Video: MPEG-4 AVC Video / 6335 kbps / 1080p / 23,976 fps / 16:9 / High Profile 4.1
Audio: English / Dolby Digital Audio / 2.0 / 48 kHz / 224 kbps / DN -4dB
Audio: English / Dolby Digital Audio / 2.0 / 48 kHz / 224 kbps / DN -4dB

********************
PLAYLIST: 00003.MPLS
********************

<--- BEGIN FORUMS PASTE --->
Total Video
Title Codec Length Movie Size Disc Size Bitrate Bitrate Main Audio Track Secondary Audio Track
----- ------ ------- -------------- -------------- ------- ------- ------------------ ---------------------
00003.MPLS AVC 0:13:50 50939904 24885826528 0,49 0,19 DD AC3 2.0 224Kbps
DISC INFO:

Disc Title: A2M #12 (2008) 1080p Blu-ray DD2.0 AVC-TrollHD XXX
Disc Size: 24885826528 bytes
Protection: AACS
BD-Java: No
BDInfo: 0.5.8

PLAYLIST REPORT:

Name: 00003.MPLS
Length: 0:13:50.829 (h:m:s.ms)
Size: 50939904 bytes
Total Bitrate: 0,49 Mbps

VIDEO:

Codec Bitrate Description
----- ------- -----------
MPEG-4 AVC Video 190 kbps 1080p / 23,976 fps / 16:9 / High Profile 4.1

AUDIO:

Codec Language Bitrate Description
----- -------- ------- -----------
Dolby Digital Audio English 224 kbps 2.0 / 48 kHz / 224 kbps / DN -4dB

FILES:

Name Time In Length Size Total Bitrate
---- ------- ------ ---- -------------
00002.M2TS 0:00:00.000 0:13:50.829 50939904 488

CHAPTERS:

Number Time In Length Avg Video Rate Max 1-Sec Rate Max 1-Sec Time Max 5-Sec Rate Max 5-Sec Time Max 10Sec Rate Max 10Sec Time Avg Frame Size Max Frame Size Max Frame Time
------ ------- ------ -------------- -------------- -------------- -------------- -------------- -------------- -------------- -------------- -------------- --------------
1 0:00:00.000 0:00:05.004 165 kbps 82 kbps 00:00:04.963 82 kbps 00:00:04.963 0 kbps 00:00:00.000 51612 bytes 51636 bytes 00:00:04.963
2 0:00:05.004 0:00:05.004 98 kbps 98 kbps 00:00:09.968 98 kbps 00:00:09.968 0 kbps 00:00:00.000 61215 bytes 61215 bytes 00:00:14.973
3 0:00:10.009 0:00:05.004 109 kbps 109 kbps 00:00:14.973 109 kbps 00:00:14.973 0 kbps 00:00:00.000 68315 bytes 68315 bytes 00:00:19.978
4 0:00:15.014 0:00:05.004 112 kbps 112 kbps 00:00:19.978 112 kbps 00:00:19.978 0 kbps 00:00:00.000 70084 bytes 70084 bytes 00:00:24.983
5 0:00:20.019 0:00:05.004 101 kbps 101 kbps 00:00:24.983 101 kbps 00:00:24.983 0 kbps 00:00:00.000 63240 bytes 63240 bytes 00:00:29.988
6 0:00:25.024 0:00:05.004 208 kbps 208 kbps 00:00:29.988 208 kbps 00:00:29.988 0 kbps 00:00:00.000 129860 bytes 129860 bytes 00:00:34.993
7 0:00:30.029 0:00:05.004 254 kbps 254 kbps 00:00:34.993 254 kbps 00:00:34.993 0 kbps 00:00:00.000 158859 bytes 158859 bytes 00:00:39.998
8 0:00:35.034 0:00:05.004 215 kbps 215 kbps 00:00:39.998 215 kbps 00:00:39.998 0 kbps 00:00:00.000 134661 bytes 134661 bytes 00:00:45.003
9 0:00:40.039 0:00:05.004 207 kbps 207 kbps 00:00:45.003 207 kbps 00:00:45.003 0 kbps 00:00:00.000 129285 bytes 129285 bytes 00:00:50.008
10 0:00:45.044 0:00:05.004 148 kbps 148 kbps 00:00:50.008 148 kbps 00:00:50.008 0 kbps 00:00:00.000 92659 bytes 92659 bytes 00:00:55.013
11 0:00:50.049 0:00:05.004 165 kbps 165 kbps 00:00:55.013 165 kbps 00:00:55.013 0 kbps 00:00:00.000 103476 bytes 103476 bytes 00:01:00.018
12 0:00:55.054 0:00:05.004 271 kbps 271 kbps 00:01:00.018 271 kbps 00:01:00.018 0 kbps 00:00:00.000 169237 bytes 169237 bytes 00:01:05.023
13 0:01:00.059 0:00:05.005 257 kbps 257 kbps 00:01:05.023 257 kbps 00:01:05.023 0 kbps 00:00:00.000 161088 bytes 161088 bytes 00:01:10.028
14 0:01:05.065 0:00:05.004 194 kbps 194 kbps 00:01:10.028 194 kbps 00:01:10.028 0 kbps 00:00:00.000 121138 bytes 121138 bytes 00:01:15.033
15 0:01:10.070 0:00:05.004 271 kbps 271 kbps 00:01:15.033 271 kbps 00:01:15.033 0 kbps 00:00:00.000 169582 bytes 169582 bytes 00:01:20.038
16 0:01:15.075 0:00:05.004 242 kbps 242 kbps 00:01:20.038 242 kbps 00:01:20.038 0 kbps 00:00:00.000 151245 bytes 151245 bytes 00:01:25.043
17 0:01:20.080 0:00:05.004 157 kbps 157 kbps 00:01:25.043 157 kbps 00:01:25.043 0 kbps 00:00:00.000 98053 bytes 98053 bytes 00:01:30.048
18 0:01:25.085 0:00:05.004 178 kbps 178 kbps 00:01:30.048 178 kbps 00:01:30.048 0 kbps 00:00:00.000 111084 bytes 111084 bytes 00:01:35.053
19 0:01:30.090 0:00:05.004 101 kbps 101 kbps 00:01:35.053 101 kbps 00:01:35.053 0 kbps 00:00:00.000 63411 bytes 63411 bytes 00:01:40.058
20 0:01:35.095 0:00:05.004 121 kbps 121 kbps 00:01:40.058 121 kbps 00:01:40.058 0 kbps 00:00:00.000 75566 bytes 75566 bytes 00:01:45.063
21 0:01:40.100 0:00:05.004 156 kbps 156 kbps 00:01:45.063 156 kbps 00:01:45.063 0 kbps 00:00:00.000 97444 bytes 97444 bytes 00:01:50.068
22 0:01:45.105 0:00:05.004 121 kbps 121 kbps 00:01:50.068 121 kbps 00:01:50.068 0 kbps 00:00:00.000 75486 bytes 75486 bytes 00:01:55.073
23 0:01:50.110 0:00:05.004 173 kbps 173 kbps 00:01:55.073 173 kbps 00:01:55.073 0 kbps 00:00:00.000 108408 bytes 108408 bytes 00:02:00.078
24 0:01:55.115 0:00:05.004 263 kbps 263 kbps 00:02:00.078 263 kbps 00:02:00.078 0 kbps 00:00:00.000 164649 bytes 164649 bytes 00:02:05.083
25 0:02:00.120 0:00:05.004 215 kbps 215 kbps 00:02:05.083 215 kbps 00:02:05.083 0 kbps 00:00:00.000 134229 bytes 134229 bytes 00:02:10.088
26 0:02:05.125 0:00:05.004 211 kbps 211 kbps 00:02:10.088 211 kbps 00:02:10.088 0 kbps 00:00:00.000 132300 bytes 132300 bytes 00:02:15.093
27 0:02:10.130 0:00:05.004 205 kbps 205 kbps 00:02:15.093 205 kbps 00:02:15.093 0 kbps 00:00:00.000 128101 bytes 128101 bytes 00:02:20.098
28 0:02:15.135 0:00:05.004 218 kbps 218 kbps 00:02:20.098 218 kbps 00:02:20.098 0 kbps 00:00:00.000 136178 bytes 136178 bytes 00:02:25.103
29 0:02:20.139 0:00:05.004 218 kbps 218 kbps 00:02:25.103 218 kbps 00:02:25.103 0 kbps 00:00:00.000 136289 bytes 136289 bytes 00:02:30.108
30 0:02:25.144 0:00:05.004 216 kbps 216 kbps 00:02:30.108 216 kbps 00:02:30.108 0 kbps 00:00:00.000 134876 bytes 134876 bytes 00:02:35.113
31 0:02:30.149 0:00:05.004 220 kbps 220 kbps 00:02:35.113 220 kbps 00:02:35.113 0 kbps 00:00:00.000 137488 bytes 137488 bytes 00:02:40.118
32 0:02:35.154 0:00:05.004 164 kbps 164 kbps 00:02:40.118 164 kbps 00:02:40.118 0 kbps 00:00:00.000 102600 bytes 102600 bytes 00:02:45.123
33 0:02:40.159 0:00:05.004 232 kbps 232 kbps 00:02:45.123 232 kbps 00:02:45.123 0 kbps 00:00:00.000 145207 bytes 145207 bytes 00:02:50.128
34 0:02:45.164 0:00:05.004 165 kbps 165 kbps 00:02:50.128 165 kbps 00:02:50.128 0 kbps 00:00:00.000 102953 bytes 102953 bytes 00:02:55.133
35 0:02:50.169 0:00:05.004 198 kbps 198 kbps 00:02:55.133 198 kbps 00:02:55.133 0 kbps 00:00:00.000 123914 bytes 123914 bytes 00:03:00.138
36 0:02:55.174 0:00:05.004 241 kbps 241 kbps 00:03:00.138 241 kbps 00:03:00.138 0 kbps 00:00:00.000 150840 bytes 150840 bytes 00:03:05.143
37 0:03:00.179 0:00:05.004 121 kbps 121 kbps 00:03:05.143 121 kbps 00:03:05.143 0 kbps 00:00:00.000 75740 bytes 75740 bytes 00:03:10.148
38 0:03:05.184 0:00:05.005 257 kbps 257 kbps 00:03:10.148 257 kbps 00:03:10.148 0 kbps 00:00:00.000 160993 bytes 160993 bytes 00:03:15.153
39 0:03:10.190 0:00:05.004 146 kbps 146 kbps 00:03:15.153 146 kbps 00:03:15.153 0 kbps 00:00:00.000 91097 bytes 91097 bytes 00:03:20.158
40 0:03:15.195 0:00:05.004 118 kbps 118 kbps 00:03:20.158 118 kbps 00:03:20.158 0 kbps 00:00:00.000 74069 bytes 74069 bytes 00:03:25.163
41 0:03:20.200 0:00:05.004 115 kbps 115 kbps 00:03:25.163 115 kbps 00:03:25.163 0 kbps 00:00:00.000 71883 bytes 71883 bytes 00:03:30.168
42 0:03:25.205 0:00:05.004 192 kbps 192 kbps 00:03:30.168 192 kbps 00:03:30.168 0 kbps 00:00:00.000 119919 bytes 119919 bytes 00:03:35.173
43 0:03:30.210 0:00:05.004 219 kbps 219 kbps 00:03:35.173 219 kbps 00:03:35.173 0 kbps 00:00:00.000 137201 bytes 137201 bytes 00:03:40.178
44 0:03:35.215 0:00:05.004 185 kbps 185 kbps 00:03:40.178 185 kbps 00:03:40.178 0 kbps 00:00:00.000 116050 bytes 116050 bytes 00:03:45.183
45 0:03:40.220 0:00:05.004 202 kbps 202 kbps 00:03:45.183 202 kbps 00:03:45.183 0 kbps 00:00:00.000 126182 bytes 126182 bytes 00:03:50.188
46 0:03:45.225 0:00:05.004 136 kbps 136 kbps 00:03:50.188 136 kbps 00:03:50.188 0 kbps 00:00:00.000 84932 bytes 84932 bytes 00:03:55.193
47 0:03:50.230 0:00:05.004 149 kbps 149 kbps 00:03:55.193 149 kbps 00:03:55.193 0 kbps 00:00:00.000 93065 bytes 93065 bytes 00:04:00.198
48 0:03:55.235 0:00:05.004 195 kbps 195 kbps 00:04:00.198 195 kbps 00:04:00.198 0 kbps 00:00:00.000 122119 bytes 122119 bytes 00:04:05.203
49 0:04:00.240 0:00:05.004 160 kbps 160 kbps 00:04:05.203 160 kbps 00:04:05.203 0 kbps 00:00:00.000 100099 bytes 100099 bytes 00:04:10.208
50 0:04:05.245 0:00:05.004 209 kbps 209 kbps 00:04:10.208 209 kbps 00:04:10.208 0 kbps 00:00:00.000 130662 bytes 130662 bytes 00:04:15.213
51 0:04:10.250 0:00:05.004 195 kbps 195 kbps 00:04:15.213 195 kbps 00:04:15.213 0 kbps 00:00:00.000 122004 bytes 122004 bytes 00:04:20.218
52 0:04:15.255 0:00:05.004 178 kbps 178 kbps 00:04:20.218 178 kbps 00:04:20.218 0 kbps 00:00:00.000 111515 bytes 111515 bytes 00:04:25.223
53 0:04:20.260 0:00:05.004 145 kbps 145 kbps 00:04:25.223 145 kbps 00:04:25.223 0 kbps 00:00:00.000 90507 bytes 90507 bytes 00:04:30.228
54 0:04:25.265 0:00:05.004 178 kbps 178 kbps 00:04:30.228 178 kbps 00:04:30.228 0 kbps 00:00:00.000 111533 bytes 111533 bytes 00:04:35.233
55 0:04:30.270 0:00:05.004 183 kbps 183 kbps 00:04:35.233 183 kbps 00:04:35.233 0 kbps 00:00:00.000 114604 bytes 114604 bytes 00:04:40.238
56 0:04:35.275 0:00:05.004 130 kbps 130 kbps 00:04:40.238 130 kbps 00:04:40.238 0 kbps 00:00:00.000 81631 bytes 81631 bytes 00:04:45.243
57 0:04:40.279 0:00:05.004 165 kbps 165 kbps 00:04:45.243 165 kbps 00:04:45.243 0 kbps 00:00:00.000 103412 bytes 103412 bytes 00:04:50.248
58 0:04:45.284 0:00:05.004 157 kbps 157 kbps 00:04:50.248 157 kbps 00:04:50.248 0 kbps 00:00:00.000 97930 bytes 97930 bytes 00:04:55.253
59 0:04:50.289 0:00:05.004 308 kbps 308 kbps 00:04:55.253 308 kbps 00:04:55.253 0 kbps 00:00:00.000 192940 bytes 192940 bytes 00:05:00.258
60 0:04:55.294 0:00:05.004 297 kbps 297 kbps 00:05:00.258 297 kbps 00:05:00.258 0 kbps 00:00:00.000 185853 bytes 185853 bytes 00:05:05.263
61 0:05:00.299 0:00:05.004 170 kbps 170 kbps 00:05:05.263 170 kbps 00:05:05.263 0 kbps 00:00:00.000 106379 bytes 106379 bytes 00:05:10.268
62 0:05:05.304 0:00:05.004 298 kbps 298 kbps 00:05:10.268 298 kbps 00:05:10.268 0 kbps 00:00:00.000 186389 bytes 186389 bytes 00:05:15.273
63 0:05:10.309 0:00:05.005 175 kbps 175 kbps 00:05:15.273 175 kbps 00:05:15.273 0 kbps 00:00:00.000 109791 bytes 109791 bytes 00:05:20.278
64 0:05:15.315 0:00:05.004 181 kbps 181 kbps 00:05:20.278 181 kbps 00:05:20.278 0 kbps 00:00:00.000 113024 bytes 113024 bytes 00:05:25.283
65 0:05:20.320 0:00:05.004 186 kbps 186 kbps 00:05:25.283 186 kbps 00:05:25.283 0 kbps 00:00:00.000 116168 bytes 116168 bytes 00:05:30.288
66 0:05:25.325 0:00:05.004 297 kbps 297 kbps 00:05:30.288 297 kbps 00:05:30.288 0 kbps 00:00:00.000 186114 bytes 186114 bytes 00:05:35.293
67 0:05:30.330 0:00:05.004 161 kbps 161 kbps 00:05:35.293 161 kbps 00:05:35.293 0 kbps 00:00:00.000 101000 bytes 101000 bytes 00:05:40.298
68 0:05:35.335 0:00:05.004 152 kbps 152 kbps 00:05:40.298 152 kbps 00:05:40.298 0 kbps 00:00:00.000 94897 bytes 94897 bytes 00:05:45.303
69 0:05:40.340 0:00:05.004 169 kbps 169 kbps 00:05:45.303 169 kbps 00:05:45.303 0 kbps 00:00:00.000 105998 bytes 105998 bytes 00:05:50.308
70 0:05:45.345 0:00:05.004 197 kbps 197 kbps 00:05:50.308 197 kbps 00:05:50.308 0 kbps 00:00:00.000 123128 bytes 123128 bytes 00:05:55.313
71 0:05:50.350 0:00:05.004 160 kbps 160 kbps 00:05:55.313 160 kbps 00:05:55.313 0 kbps 00:00:00.000 100135 bytes 100135 bytes 00:06:00.318
72 0:05:55.355 0:00:05.004 271 kbps 271 kbps 00:06:00.318 271 kbps 00:06:00.318 0 kbps 00:00:00.000 169378 bytes 169378 bytes 00:06:05.323
73 0:06:00.360 0:00:05.004 139 kbps 139 kbps 00:06:05.323 139 kbps 00:06:05.323 0 kbps 00:00:00.000 86690 bytes 86690 bytes 00:06:10.328
74 0:06:05.365 0:00:05.004 310 kbps 310 kbps 00:06:10.328 310 kbps 00:06:10.328 0 kbps 00:00:00.000 193838 bytes 193838 bytes 00:06:15.333
75 0:06:10.370 0:00:05.004 247 kbps 247 kbps 00:06:15.333 247 kbps 00:06:15.333 0 kbps 00:00:00.000 154281 bytes 154281 bytes 00:06:20.338
76 0:06:15.375 0:00:05.004 170 kbps 170 kbps 00:06:20.338 170 kbps 00:06:20.338 0 kbps 00:00:00.000 106288 bytes 106288 bytes 00:06:25.343
77 0:06:20.380 0:00:05.004 175 kbps 175 kbps 00:06:25.343 175 kbps 00:06:25.343 0 kbps 00:00:00.000 109647 bytes 109647 bytes 00:06:30.348
78 0:06:25.385 0:00:05.004 155 kbps 155 kbps 00:06:30.348 155 kbps 00:06:30.348 0 kbps 00:00:00.000 97191 bytes 97191 bytes 00:06:35.353
79 0:06:30.390 0:00:05.004 182 kbps 182 kbps 00:06:35.353 182 kbps 00:06:35.353 0 kbps 00:00:00.000 114069 bytes 114069 bytes 00:06:40.358
80 0:06:35.395 0:00:05.004 116 kbps 116 kbps 00:06:40.358 116 kbps 00:06:40.358 0 kbps 00:00:00.000 72344 bytes 72344 bytes 00:06:45.363
81 0:06:40.400 0:00:05.004 117 kbps 117 kbps 00:06:45.363 117 kbps 00:06:45.363 0 kbps 00:00:00.000 72895 bytes 72895 bytes 00:06:50.368
82 0:06:45.404 0:00:05.004 115 kbps 115 kbps 00:06:50.368 115 kbps 00:06:50.368 0 kbps 00:00:00.000 71915 bytes 71915 bytes 00:06:55.373
83 0:06:50.409 0:00:05.004 145 kbps 145 kbps 00:06:55.373 145 kbps 00:06:55.373 0 kbps 00:00:00.000 90573 bytes 90573 bytes 00:07:00.378
84 0:06:55.414 0:00:05.004 256 kbps 256 kbps 00:07:00.378 256 kbps 00:07:00.378 0 kbps 00:00:00.000 160271 bytes 160271 bytes 00:07:05.383
85 0:07:00.419 0:00:05.004 283 kbps 283 kbps 00:07:05.383 283 kbps 00:07:05.383 0 kbps 00:00:00.000 177298 bytes 177298 bytes 00:07:10.388
86 0:07:05.424 0:00:05.005 187 kbps 187 kbps 00:07:10.388 187 kbps 00:07:10.388 0 kbps 00:00:00.000 116903 bytes 116903 bytes 00:07:15.393
87 0:07:10.430 0:00:05.004 184 kbps 184 kbps 00:07:15.393 184 kbps 00:07:15.393 0 kbps 00:00:00.000 115242 bytes 115242 bytes 00:07:20.398
88 0:07:15.434 0:00:05.005 271 kbps 271 kbps 00:07:20.398 271 kbps 00:07:20.398 0 kbps 00:00:00.000 169526 bytes 169526 bytes 00:07:25.403
89 0:07:20.440 0:00:05.004 255 kbps 255 kbps 00:07:25.403 255 kbps 00:07:25.403 0 kbps 00:00:00.000 159460 bytes 159460 bytes 00:07:30.408
90 0:07:25.444 0:00:05.005 138 kbps 138 kbps 00:07:30.408 138 kbps 00:07:30.408 0 kbps 00:00:00.000 86297 bytes 86297 bytes 00:07:35.413
91 0:07:30.450 0:00:05.004 290 kbps 290 kbps 00:07:35.413 290 kbps 00:07:35.413 0 kbps 00:00:00.000 181167 bytes 181167 bytes 00:07:40.418
92 0:07:35.454 0:00:05.005 176 kbps 176 kbps 00:07:40.418 176 kbps 00:07:40.418 0 kbps 00:00:00.000 109997 bytes 109997 bytes 00:07:45.423
93 0:07:40.460 0:00:05.004 283 kbps 283 kbps 00:07:45.423 283 kbps 00:07:45.423 0 kbps 00:00:00.000 176943 bytes 176943 bytes 00:07:50.428
94 0:07:45.464 0:00:05.005 242 kbps 242 kbps 00:07:50.428 242 kbps 00:07:50.428 0 kbps 00:00:00.000 151405 bytes 151405 bytes 00:07:55.433
95 0:07:50.470 0:00:05.004 150 kbps 150 kbps 00:07:55.433 150 kbps 00:07:55.433 0 kbps 00:00:00.000 93715 bytes 93715 bytes 00:08:00.438
96 0:07:55.474 0:00:05.005 164 kbps 164 kbps 00:08:00.438 164 kbps 00:08:00.438 0 kbps 00:00:00.000 102425 bytes 102425 bytes 00:08:05.443
97 0:08:00.480 0:00:05.004 136 kbps 136 kbps 00:08:05.443 136 kbps 00:08:05.443 0 kbps 00:00:00.000 85371 bytes 85371 bytes 00:08:10.448
98 0:08:05.484 0:00:05.005 234 kbps 234 kbps 00:08:10.448 234 kbps 00:08:10.448 0 kbps 00:00:00.000 146513 bytes 146513 bytes 00:08:15.453
99 0:08:10.490 0:00:05.004 134 kbps 134 kbps 00:08:15.453 134 kbps 00:08:15.453 0 kbps 00:00:00.000 83726 bytes 83726 bytes 00:08:20.458
100 0:08:15.494 0:00:05.005 172 kbps 172 kbps 00:08:20.458 172 kbps 00:08:20.458 0 kbps 00:00:00.000 107578 bytes 107578 bytes 00:08:25.463
101 0:08:20.500 0:00:05.005 146 kbps 146 kbps 00:08:25.463 146 kbps 00:08:25.463 0 kbps 00:00:00.000 91087 bytes 91087 bytes 00:08:30.468
102 0:08:25.505 0:00:05.004 235 kbps 235 kbps 00:08:30.468 235 kbps 00:08:30.468 0 kbps 00:00:00.000 146958 bytes 146958 bytes 00:08:35.473
103 0:08:30.510 0:00:05.005 154 kbps 154 kbps 00:08:35.473 154 kbps 00:08:35.473 0 kbps 00:00:00.000 96634 bytes 96634 bytes 00:08:40.478
104 0:08:35.515 0:00:05.004 151 kbps 151 kbps 00:08:40.478 151 kbps 00:08:40.478 0 kbps 00:00:00.000 94441 bytes 94441 bytes 00:08:45.483
105 0:08:40.520 0:00:05.005 139 kbps 139 kbps 00:08:45.483 139 kbps 00:08:45.483 0 kbps 00:00:00.000 87018 bytes 87018 bytes 00:08:50.488
106 0:08:45.525 0:00:05.004 120 kbps 120 kbps 00:08:50.488 120 kbps 00:08:50.488 0 kbps 00:00:00.000 74917 bytes 74917 bytes 00:08:55.493
107 0:08:50.530 0:00:05.005 146 kbps 146 kbps 00:08:55.493 146 kbps 00:08:55.493 0 kbps 00:00:00.000 91484 bytes 91484 bytes 00:09:00.498
108 0:08:55.535 0:00:05.004 147 kbps 147 kbps 00:09:00.498 147 kbps 00:09:00.498 0 kbps 00:00:00.000 91685 bytes 91685 bytes 00:09:05.503
109 0:09:00.540 0:00:05.005 186 kbps 186 kbps 00:09:05.503 186 kbps 00:09:05.503 0 kbps 00:00:00.000 116250 bytes 116250 bytes 00:09:10.508
110 0:09:05.545 0:00:05.004 147 kbps 147 kbps 00:09:10.508 147 kbps 00:09:10.508 0 kbps 00:00:00.000 91722 bytes 91722 bytes 00:09:15.513
111 0:09:10.550 0:00:05.005 183 kbps 183 kbps 00:09:15.513 183 kbps 00:09:15.513 0 kbps 00:00:00.000 114186 bytes 114186 bytes 00:09:20.518
112 0:09:15.555 0:00:05.004 139 kbps 139 kbps 00:09:20.518 139 kbps 00:09:20.518 0 kbps 00:00:00.000 86662 bytes 86662 bytes 00:09:25.523
113 0:09:20.559 0:00:05.005 145 kbps 145 kbps 00:09:25.523 145 kbps 00:09:25.523 0 kbps 00:00:00.000 90572 bytes 90572 bytes 00:09:30.528
114 0:09:25.565 0:00:05.004 190 kbps 190 kbps 00:09:30.528 190 kbps 00:09:30.528 0 kbps 00:00:00.000 119072 bytes 119072 bytes 00:09:35.533
115 0:09:30.569 0:00:05.005 143 kbps 143 kbps 00:09:35.533 143 kbps 00:09:35.533 0 kbps 00:00:00.000 89608 bytes 89608 bytes 00:09:40.538
116 0:09:35.575 0:00:05.004 121 kbps 121 kbps 00:09:40.538 121 kbps 00:09:40.538 0 kbps 00:00:00.000 75659 bytes 75659 bytes 00:09:45.543
117 0:09:40.579 0:00:05.005 187 kbps 187 kbps 00:09:45.543 187 kbps 00:09:45.543 0 kbps 00:00:00.000 117250 bytes 117250 bytes 00:09:50.548
118 0:09:45.585 0:00:05.004 150 kbps 150 kbps 00:09:50.548 150 kbps 00:09:50.548 0 kbps 00:00:00.000 93817 bytes 93817 bytes 00:09:55.553
119 0:09:50.589 0:00:05.005 142 kbps 142 kbps 00:09:55.553 142 kbps 00:09:55.553 0 kbps 00:00:00.000 89052 bytes 89052 bytes 00:10:00.558
120 0:09:55.595 0:00:05.004 311 kbps 311 kbps 00:10:00.558 311 kbps 00:10:00.558 0 kbps 00:00:00.000 194700 bytes 194700 bytes 00:10:05.563
121 0:10:00.599 0:00:05.005 314 kbps 314 kbps 00:10:05.563 314 kbps 00:10:05.563 0 kbps 00:00:00.000 196394 bytes 196394 bytes 00:10:10.568
122 0:10:05.605 0:00:05.004 272 kbps 272 kbps 00:10:10.568 272 kbps 00:10:10.568 0 kbps 00:00:00.000 170323 bytes 170323 bytes 00:10:15.573
123 0:10:10.609 0:00:05.005 144 kbps 144 kbps 00:10:15.573 144 kbps 00:10:15.573 0 kbps 00:00:00.000 90182 bytes 90182 bytes 00:10:20.578
124 0:10:15.615 0:00:05.004 136 kbps 136 kbps 00:10:20.578 136 kbps 00:10:20.578 0 kbps 00:00:00.000 85333 bytes 85333 bytes 00:10:25.583
125 0:10:20.619 0:00:05.005 212 kbps 212 kbps 00:10:25.583 212 kbps 00:10:25.583 0 kbps 00:00:00.000 132868 bytes 132868 bytes 00:10:30.588
126 0:10:25.625 0:00:05.005 230 kbps 230 kbps 00:10:30.588 230 kbps 00:10:30.588 0 kbps 00:00:00.000 143721 bytes 143721 bytes 00:10:35.593
127 0:10:30.630 0:00:05.004 139 kbps 139 kbps 00:10:35.593 139 kbps 00:10:35.593 0 kbps 00:00:00.000 86826 bytes 86826 bytes 00:10:40.598
128 0:10:35.635 0:00:05.005 288 kbps 288 kbps 00:10:40.598 288 kbps 00:10:40.598 0 kbps 00:00:00.000 180353 bytes 180353 bytes 00:10:45.603
129 0:10:40.640 0:00:05.004 115 kbps 115 kbps 00:10:45.603 115 kbps 00:10:45.603 0 kbps 00:00:00.000 71668 bytes 71668 bytes 00:10:50.608
130 0:10:45.645 0:00:05.005 315 kbps 315 kbps 00:10:50.608 315 kbps 00:10:50.608 0 kbps 00:00:00.000 197233 bytes 197233 bytes 00:10:55.613
131 0:10:50.650 0:00:05.004 240 kbps 240 kbps 00:10:55.613 240 kbps 00:10:55.613 0 kbps 00:00:00.000 149938 bytes 149938 bytes 00:11:00.618
132 0:10:55.655 0:00:05.005 233 kbps 233 kbps 00:11:00.618 233 kbps 00:11:00.618 0 kbps 00:00:00.000 145971 bytes 145971 bytes 00:11:05.623
133 0:11:00.660 0:00:05.004 132 kbps 132 kbps 00:11:05.623 132 kbps 00:11:05.623 0 kbps 00:00:00.000 82305 bytes 82305 bytes 00:11:10.628
134 0:11:05.665 0:00:05.005 219 kbps 219 kbps 00:11:10.628 219 kbps 00:11:10.628 0 kbps 00:00:00.000 137255 bytes 137255 bytes 00:11:15.633
135 0:11:10.670 0:00:05.004 223 kbps 223 kbps 00:11:15.633 223 kbps 00:11:15.633 0 kbps 00:00:00.000 139265 bytes 139265 bytes 00:11:20.638
136 0:11:15.675 0:00:05.005 128 kbps 128 kbps 00:11:20.638 128 kbps 00:11:20.638 0 kbps 00:00:00.000 80388 bytes 80388 bytes 00:11:25.643
137 0:11:20.680 0:00:05.004 121 kbps 121 kbps 00:11:25.643 121 kbps 00:11:25.643 0 kbps 00:00:00.000 75978 bytes 75978 bytes 00:11:30.648
138 0:11:25.684 0:00:05.005 145 kbps 145 kbps 00:11:30.648 145 kbps 00:11:30.648 0 kbps 00:00:00.000 90666 bytes 90666 bytes 00:11:35.653
139 0:11:30.690 0:00:05.004 130 kbps 130 kbps 00:11:35.653 130 kbps 00:11:35.653 0 kbps 00:00:00.000 81099 bytes 81099 bytes 00:11:40.658
140 0:11:35.694 0:00:05.005 162 kbps 162 kbps 00:11:40.658 162 kbps 00:11:40.658 0 kbps 00:00:00.000 101258 bytes 101258 bytes 00:11:45.663
141 0:11:40.700 0:00:05.004 156 kbps 156 kbps 00:11:45.663 156 kbps 00:11:45.663 0 kbps 00:00:00.000 97837 bytes 97837 bytes 00:11:50.668
142 0:11:45.704 0:00:05.005 195 kbps 195 kbps 00:11:50.668 195 kbps 00:11:50.668 0 kbps 00:00:00.000 121807 bytes 121807 bytes 00:11:55.673
143 0:11:50.710 0:00:05.004 180 kbps 180 kbps 00:11:55.673 180 kbps 00:11:55.673 0 kbps 00:00:00.000 112411 bytes 112411 bytes 00:12:00.678
144 0:11:55.714 0:00:05.005 193 kbps 193 kbps 00:12:00.678 193 kbps 00:12:00.678 0 kbps 00:00:00.000 121027 bytes 121027 bytes 00:12:05.683
145 0:12:00.720 0:00:05.004 204 kbps 204 kbps 00:12:05.683 204 kbps 00:12:05.683 0 kbps 00:00:00.000 127630 bytes 127630 bytes 00:12:10.688
146 0:12:05.724 0:00:05.005 341 kbps 341 kbps 00:12:10.688 341 kbps 00:12:10.688 0 kbps 00:00:00.000 213485 bytes 213485 bytes 00:12:15.693
147 0:12:10.730 0:00:05.004 134 kbps 134 kbps 00:12:15.693 134 kbps 00:12:15.693 0 kbps 00:00:00.000 83590 bytes 83590 bytes 00:12:20.698
148 0:12:15.734 0:00:05.005 346 kbps 346 kbps 00:12:20.698 346 kbps 00:12:20.698 0 kbps 00:00:00.000 216742 bytes 216742 bytes 00:12:25.703
149 0:12:20.740 0:00:05.004 152 kbps 152 kbps 00:12:25.703 152 kbps 00:12:25.703 0 kbps 00:00:00.000 95406 bytes 95406 bytes 00:12:30.708
150 0:12:25.744 0:00:05.005 165 kbps 165 kbps 00:12:30.708 165 kbps 00:12:30.708 0 kbps 00:00:00.000 102922 bytes 102922 bytes 00:12:35.713
151 0:12:30.750 0:00:05.005 166 kbps 166 kbps 00:12:35.713 166 kbps 00:12:35.713 0 kbps 00:00:00.000 104088 bytes 104088 bytes 00:12:40.718
152 0:12:35.755 0:00:05.004 153 kbps 153 kbps 00:12:40.718 153 kbps 00:12:40.718 0 kbps 00:00:00.000 95656 bytes 95656 bytes 00:12:45.723
153 0:12:40.760 0:00:05.005 143 kbps 143 kbps 00:12:45.723 143 kbps 00:12:45.723 0 kbps 00:00:00.000 89693 bytes 89693 bytes 00:12:50.728
154 0:12:45.765 0:00:05.004 247 kbps 247 kbps 00:12:50.728 247 kbps 00:12:50.728 0 kbps 00:00:00.000 154749 bytes 154749 bytes 00:12:55.733
155 0:12:50.770 0:00:05.005 288 kbps 288 kbps 00:12:55.733 288 kbps 00:12:55.733 0 kbps 00:00:00.000 179971 bytes 179971 bytes 00:13:00.738
156 0:12:55.775 0:00:05.004 301 kbps 301 kbps 00:13:00.738 301 kbps 00:13:00.738 0 kbps 00:00:00.000 188023 bytes 188023 bytes 00:13:05.743
157 0:13:00.780 0:00:05.005 152 kbps 152 kbps 00:13:05.743 152 kbps 00:13:05.743 0 kbps 00:00:00.000 95277 bytes 95277 bytes 00:13:10.748
158 0:13:05.785 0:00:05.004 182 kbps 182 kbps 00:13:10.748 182 kbps 00:13:10.748 0 kbps 00:00:00.000 113667 bytes 113667 bytes 00:13:15.753
159 0:13:10.790 0:00:05.005 255 kbps 255 kbps 00:13:15.753 255 kbps 00:13:15.753 0 kbps 00:00:00.000 159393 bytes 159393 bytes 00:13:20.758
160 0:13:15.795 0:00:05.004 246 kbps 246 kbps 00:13:20.758 246 kbps 00:13:20.758 0 kbps 00:00:00.000 154192 bytes 154192 bytes 00:13:25.763
161 0:13:20.800 0:00:05.005 181 kbps 181 kbps 00:13:25.763 181 kbps 00:13:25.763 0 kbps 00:00:00.000 112948 bytes 112948 bytes 00:13:30.768
162 0:13:25.805 0:00:05.004 275 kbps 275 kbps 00:13:30.768 275 kbps 00:13:30.768 0 kbps 00:00:00.000 171818 bytes 171818 bytes 00:13:35.773
163 0:13:30.809 0:00:05.005 165 kbps 165 kbps 00:13:35.773 165 kbps 00:13:35.773 0 kbps 00:00:00.000 103366 bytes 103366 bytes 00:13:40.778
164 0:13:35.815 0:00:05.004 175 kbps 175 kbps 00:13:40.778 175 kbps 00:13:40.778 0 kbps 00:00:00.000 109411 bytes 109411 bytes 00:13:45.783
165 0:13:40.819 0:00:05.005 258 kbps 260 kbps 00:13:45.783 0 kbps 00:00:00.000 0 kbps 00:00:00.000 161342 bytes 161342 bytes 00:13:50.746
166 0:13:45.825 0:00:05.004 258 kbps 0 kbps 00:00:00.000 0 kbps 00:00:00.000 0 kbps 00:00:00.000 161342 bytes 161342 bytes 00:13:50.788

STREAM DIAGNOSTICS:

File PID Type Codec Language Seconds Bitrate Bytes Packets
---- --- ---- ----- -------- -------------- -------------- ------------- -----
00002.M2TS 4113 (0x1011) 0x1B AVC 825,783 192 19807744 107748
00002.M2TS 4352 (0x1100) 0x81 AC3 eng (English) 825,783 225 23246720 129725
<---- END FORUMS PASTE ---->

QUICK SUMMARY:

Disc Title: A2M #12 (2008) 1080p Blu-ray DD2.0 AVC-TrollHD XXX
Disc Size: 24885826528 bytes
Protection: AACS
BD-Java: No
Playlist: 00003.MPLS
Size: 50939904 bytes
Length: 0:13:50.829
Total Bitrate: 0,49 Mbps
Video: MPEG-4 AVC Video / 190 kbps / 1080p / 23,976 fps / 16:9 / High Profile 4.1
Audio: English / Dolby Digital Audio / 2.0 / 48 kHz / 224 kbps / DN -4dB
General #0
ID : 0 (0x0)
Complete name : A2M #12 (2008) 1080p Blu-ray DD2.0 AVC-TrollHD XXX\A2M #12 (2008) 1080p Blu-ray DD2.0 AVC-TrollHD XXX\BDMV\STREAM\00000.m2ts
Format : BDAV
Format/Info : Blu-ray Video
File size : 21.6 GiB
Duration : 2h 53mn
Overall bit rate mode : Variable
Overall bit rate : 17.8 Mbps
Maximum Overall bit rate : 48.0 Mbps
Video #4113
ID : 4113 (0x1011)
Menu ID : 1 (0x1)
Format : AVC
Format/Info : Advanced Video Codec
Format profile : High@L4.1
Format settings, CABAC : Yes
Format settings, ReFrames : 4 frames
Format settings, GOP : M=3, N=24
Codec ID : 27
Duration : 2h 53mn
Bit rate mode : Variable
Bit rate : 16.6 Mbps
Maximum bit rate : 35.0 Mbps
Width : 1 440 pixels
Height : 1 080 pixels
Display aspect ratio : 16:9
Frame rate : 23.976 fps
Standard : NTSC
Color space : YUV
Chroma subsampling : 4:2:0
Bit depth : 8 bits
Scan type : Progressive
Bits/(Pixel*Frame) : 0.445
Stream size : 20.1 GiB (93%)
Color primaries : BT.709-5, BT.1361, IEC 61966-2-4, SMPTE RP177
Transfer characteristics : BT.709-5, BT.1361
Matrix coefficients : BT.709-5, BT.1361, IEC 61966-2-4 709, SMPTE RP177
Audio #4352
ID : 4352 (0x1100)
Menu ID : 1 (0x1)
Format : AC-3
Format/Info : Audio Coding 3
Mode extension : CM (complete main)
Codec ID : 129
Duration : 2h 53mn
Bit rate mode : Constant
Bit rate : 224 Kbps
Channel(s) : 2 channels
Channel positions : Front: L R
Sampling rate : 48.0 KHz
Bit depth : 16 bits
Compression mode : Lossy
Stream size : 278 MiB (1%)
Audio #4353
ID : 4353 (0x1101)
Menu ID : 1 (0x1)
Format : AC-3
Format/Info : Audio Coding 3
Mode extension : CM (complete main)
Codec ID : 129
Duration : 2h 53mn
Bit rate mode : Constant
Bit rate : 224 Kbps
Channel(s) : 2 channels
Channel positions : Front: L R
Sampling rate : 48.0 KHz
Bit depth : 16 bits
Compression mode : Lossy
Stream size : 278 MiB (1%)


 ·  , , FAQ-
:  [ 21--2013 07:01 ]

  

.torrent

.torrent 118 KB


: 23.18 GB
(hash) : fbbd6b92c7219a36b1e6748af4cfd97ef40c5fd4
··
...

A2M: The Art Of Ass To Mouth 12 12 . !

!