Double Decker Sandwich 12 12 UnionPeer.org HD

2015, 2014 UnionPeer.org

.

, , - AdBlock. #!


22.26 GB   |    :  3 9    |    .torrent :  165    |   
1  
   
...
 

LinGr

avatar LinGr


Double Decker Sandwich 12 12
: 2008 .
: United States
: All Sex, Gonzo, Anal, Threesomes
: 02:38:45

: Zero Tolerance Ent.
: Quasarman (as Mike Quasar)

:
: Abbey Brooks, Aiden Starr, Evie Delatosso, Holly Halston, Kelly Summer, Melissa Lauren, Moxxie Maddron, Ricki White, Robyn Truelove, Sarah Wild, Shyla Stylez & Tanya James. James Deen, John Strong, Marco Banderas & Mick Blue

:
If you're hungry for a tasty tit treat, then you'll enjoy a sexy serving from the delicious Double Decker menu.
Your appetite for a mile-high serving of breast meat, while working your throbbing kielbasa will be satisfied!
Don't forget to order a side of extra creamy dick dressing for your two huge helpings of mouth-watering mammaries.
Open wide and say, "Ahhhh" for the most scintillating tit-loving series in XXX.

:
. :
* Interactive Menus
* Chapter Selection
* Photo Gallery
* Cum Shot Recap
* Trailers

HD : 1080p
: Blu-Ray
: Blu-Ray Video
: BDMV
: H.264/AVC
: AC3
: VC-1 Video / ~15000 Mbps / 1920x1080p / 23,976 fps / 16:9
: Dolby Digital Audio 2.0 / 48000 Hz / 192 kbps
Disc Title: Double Decker Sandwich 12 (2008) Blu-ray
Disc Size: 23897177141 bytes
Protection: AACS
BD-Java: No
BDInfo: 0.5.8

Notes:

********************
PLAYLIST: 00001.MPLS
********************

<--- BEGIN FORUMS PASTE --->
Total Video
Title Codec Length Movie Size Disc Size Bitrate Bitrate Main Audio Track Secondary Audio Track
----- ------ ------- -------------- -------------- ------- ------- ------------------ ---------------------
00001.MPLS VC-1 2:38:45 19069580544 23897177141 16,02 15,05 DD AC3 2.0 192Kbps
DISC INFO:

Disc Title: Double Decker Sandwich 12 (2008) Blu-ray
Disc Size: 23897177141 bytes
Protection: AACS
BD-Java: No
BDInfo: 0.5.8

PLAYLIST REPORT:

Name: 00001.MPLS
Length: 2:38:45.641 (h:m:s.ms)
Size: 19069580544 bytes
Total Bitrate: 16,02 Mbps

VIDEO:

Codec Bitrate Description
----- ------- -----------
VC-1 Video 15047 kbps 1080p / 23,976 fps / 16:9 / Advanced Profile 3

AUDIO:

Codec Language Bitrate Description
----- -------- ------- -----------
Dolby Digital Audio English 192 kbps 2.0 / 48 kHz / 192 kbps / DN -4dB

FILES:

Name Time In Length Size Total Bitrate
---- ------- ------ ---- -------------
00001.M2TS 0:00:00.000 2:38:44.640 19069549824 16017
00012.M2TS 2:38:44.640 0:00:01.000 30720 246

CHAPTERS:

Number Time In Length Avg Video Rate Max 1-Sec Rate Max 1-Sec Time Max 5-Sec Rate Max 5-Sec Time Max 10Sec Rate Max 10Sec Time Avg Frame Size Max Frame Size Max Frame Time
------ ------- ------ -------------- -------------- -------------- -------------- -------------- -------------- -------------- -------------- -------------- --------------
1 0:00:00.000 0:01:20.455 9752 kbps 18761 kbps 00:00:54.471 14990 kbps 00:00:02.377 12967 kbps 00:00:04.379 52057 bytes 236047 bytes 00:00:43.084
2 0:01:20.455 0:03:43.848 15286 kbps 24155 kbps 00:03:50.313 20818 kbps 00:03:40.803 19951 kbps 00:03:41.304 79693 bytes 372003 bytes 00:03:36.758
3 0:05:04.303 0:02:17.512 15103 kbps 18995 kbps 00:06:20.546 16872 kbps 00:05:49.682 16702 kbps 00:05:44.802 78741 bytes 252576 bytes 00:05:09.851
4 0:07:21.816 0:02:18.680 13863 kbps 17610 kbps 00:07:57.977 16224 kbps 00:07:55.308 15640 kbps 00:07:53.055 72274 bytes 262814 bytes 00:09:13.094
5 0:09:40.496 0:01:53.279 12822 kbps 17415 kbps 00:11:14.507 15442 kbps 00:11:12.463 14397 kbps 00:11:23.766 66850 bytes 257409 bytes 00:10:35.176
6 0:11:33.776 0:03:54.609 14494 kbps 19738 kbps 00:14:10.182 17911 kbps 00:13:32.520 17111 kbps 00:14:03.259 75565 bytes 306497 bytes 00:14:33.581
7 0:15:28.385 0:04:29.394 14046 kbps 19942 kbps 00:16:36.245 19020 kbps 00:16:33.158 17780 kbps 00:16:32.157 73230 bytes 351668 bytes 00:17:48.776
8 0:19:57.779 0:02:19.889 14444 kbps 17221 kbps 00:21:43.969 16214 kbps 00:21:43.760 15773 kbps 00:20:47.329 75306 bytes 341410 bytes 00:20:01.909
9 0:22:17.669 0:06:04.489 13961 kbps 19886 kbps 00:25:00.749 18924 kbps 00:24:57.996 18397 kbps 00:24:53.033 72786 bytes 316574 bytes 00:27:44.704
10 0:28:22.158 0:00:52.385 14740 kbps 19158 kbps 00:29:02.740 17269 kbps 00:29:06.161 16937 kbps 00:29:01.406 78535 bytes 312053 bytes 00:28:56.776
11 0:29:14.544 0:07:21.732 17162 kbps 31926 kbps 00:34:07.712 29408 kbps 00:34:04.959 28521 kbps 00:33:59.912 89474 bytes 392794 bytes 00:33:28.047
12 0:36:36.277 0:01:51.194 16468 kbps 21378 kbps 00:36:38.362 19682 kbps 00:36:55.212 18913 kbps 00:36:55.546 85856 bytes 301472 bytes 00:37:05.264
13 0:38:27.471 0:02:08.086 17552 kbps 23390 kbps 00:39:39.877 21525 kbps 00:39:59.647 20880 kbps 00:39:37.875 91509 bytes 327774 bytes 00:40:01.440
14 0:40:35.558 0:04:14.545 17175 kbps 23678 kbps 00:44:39.093 21580 kbps 00:44:36.340 20191 kbps 00:44:32.336 89545 bytes 338729 bytes 00:42:34.927
15 0:44:50.104 0:02:38.700 16830 kbps 21802 kbps 00:46:44.968 19029 kbps 00:47:21.839 18326 kbps 00:46:12.686 87746 bytes 352423 bytes 00:46:55.187
16 0:47:28.804 0:04:08.706 16863 kbps 24061 kbps 00:48:30.991 21111 kbps 00:50:58.388 20405 kbps 00:50:56.428 87916 bytes 329411 bytes 00:51:08.440
17 0:51:37.511 0:02:02.330 17503 kbps 26512 kbps 00:53:08.184 22523 kbps 00:53:05.265 20234 kbps 00:53:25.952 91254 bytes 338330 bytes 00:52:15.507
18 0:53:39.841 0:03:07.478 17296 kbps 24870 kbps 00:55:08.096 20414 kbps 00:55:27.824 19960 kbps 00:55:26.573 90172 bytes 348833 bytes 00:55:28.033
19 0:56:47.320 0:01:01.519 17977 kbps 23725 kbps 00:57:12.512 21826 kbps 00:57:28.111 20916 kbps 00:57:22.188 95208 bytes 377834 bytes 00:57:06.131
20 0:57:48.840 0:05:20.611 15679 kbps 27942 kbps 01:00:18.656 21102 kbps 01:00:18.656 19206 kbps 01:00:18.740 81745 bytes 375108 bytes 01:02:27.452
21 1:03:09.452 0:03:13.234 14147 kbps 19211 kbps 01:03:25.968 17701 kbps 01:03:22.340 16971 kbps 01:03:18.127 73757 bytes 357895 bytes 01:03:45.530
22 1:06:22.687 0:01:37.096 14792 kbps 19215 kbps 01:06:31.904 17621 kbps 01:06:29.819 16983 kbps 01:07:11.027 77120 bytes 281110 bytes 01:07:13.738
23 1:07:59.784 0:02:30.191 15368 kbps 22611 kbps 01:09:00.052 21198 kbps 01:08:57.967 20010 kbps 01:08:56.340 80120 bytes 349844 bytes 01:09:23.200
24 1:10:29.975 0:02:07.836 10857 kbps 15273 kbps 01:11:14.853 14267 kbps 01:11:10.349 14051 kbps 01:11:07.513 56602 bytes 271754 bytes 01:11:15.312
25 1:12:37.811 0:02:51.588 11792 kbps 17547 kbps 01:13:49.174 15980 kbps 01:13:10.969 15569 kbps 01:13:10.677 61478 bytes 226157 bytes 01:13:50.467
26 1:15:29.399 0:02:32.986 11822 kbps 18058 kbps 01:16:28.083 15959 kbps 01:17:56.254 14661 kbps 01:17:51.875 61632 bytes 265392 bytes 01:17:29.686
27 1:18:02.386 0:01:15.116 14718 kbps 18563 kbps 01:18:17.943 17294 kbps 01:18:14.940 16945 kbps 01:18:13.855 76735 bytes 267243 bytes 01:18:37.754
28 1:19:17.502 0:00:51.259 12686 kbps 21430 kbps 01:19:56.625 19348 kbps 01:19:55.457 17186 kbps 01:19:51.953 67456 bytes 247620 bytes 01:20:00.837
29 1:20:08.762 0:06:46.489 16815 kbps 26855 kbps 01:21:10.532 21943 kbps 01:23:00.141 21228 kbps 01:21:10.448 87667 bytes 370647 bytes 01:20:41.878
30 1:26:55.251 0:02:35.280 18624 kbps 23747 kbps 01:27:38.836 22538 kbps 01:27:35.833 21642 kbps 01:27:34.916 97097 bytes 334863 bytes 01:28:35.685
31 1:29:30.531 0:02:38.533 18309 kbps 27280 kbps 01:31:39.285 22611 kbps 01:30:59.495 21871 kbps 01:30:58.244 95455 bytes 341089 bytes 01:30:22.792
32 1:32:09.065 0:03:01.556 19749 kbps 24177 kbps 01:33:10.835 23132 kbps 01:33:11.669 22731 kbps 01:33:09.834 102962 bytes 356041 bytes 01:32:59.949
33 1:35:10.621 0:06:30.306 18821 kbps 27074 kbps 01:40:54.381 25096 kbps 01:40:53.714 23555 kbps 01:40:53.714 98126 bytes 340883 bytes 01:40:28.731
34 1:41:40.928 0:01:51.361 21326 kbps 27590 kbps 01:43:13.854 24801 kbps 01:41:55.943 24383 kbps 01:41:47.351 111186 bytes 343118 bytes 01:42:22.845
35 1:43:32.289 0:01:37.639 17965 kbps 22983 kbps 01:44:58.041 21798 kbps 01:44:57.291 20933 kbps 01:44:55.038 93659 bytes 318659 bytes 01:43:36.919
36 1:45:09.928 0:00:46.171 18132 kbps 27012 kbps 01:45:40.584 22507 kbps 01:45:39.374 21124 kbps 01:45:33.493 96893 bytes 344407 bytes 01:45:48.050
37 1:45:56.099 0:07:41.794 11115 kbps 21464 kbps 01:49:03.411 18854 kbps 01:49:03.328 17190 kbps 01:49:03.328 57946 bytes 352536 bytes 01:49:10.210
38 1:53:37.894 0:02:20.932 13309 kbps 17085 kbps 01:55:29.464 15447 kbps 01:55:26.336 15067 kbps 01:55:28.546 69388 bytes 241638 bytes 01:54:04.879
39 1:55:58.826 0:02:33.486 14222 kbps 18369 kbps 01:56:44.497 16968 kbps 01:56:43.830 16595 kbps 01:56:37.907 74148 bytes 280962 bytes 01:56:39.033
40 1:58:32.313 0:01:17.911 12888 kbps 17879 kbps 01:59:39.755 15674 kbps 01:59:37.545 14772 kbps 01:59:33.833 67192 bytes 302994 bytes 01:59:48.222
41 1:59:50.224 0:04:42.782 11870 kbps 16409 kbps 01:59:51.184 14710 kbps 01:59:50.516 14032 kbps 01:59:50.600 61886 bytes 333397 bytes 02:01:09.303
42 2:04:33.007 0:01:29.714 12975 kbps 19819 kbps 02:05:25.267 16714 kbps 02:05:21.263 15680 kbps 02:05:16.258 67644 bytes 291324 bytes 02:05:47.915
43 2:06:02.721 0:02:51.004 12397 kbps 15988 kbps 02:08:48.137 14649 kbps 02:08:26.365 14203 kbps 02:08:20.859 64633 bytes 306966 bytes 02:08:49.096
44 2:08:53.726 0:00:51.885 13767 kbps 19394 kbps 02:09:39.104 17283 kbps 02:09:37.770 16061 kbps 02:09:23.505 73247 bytes 291978 bytes 02:09:41.148
45 2:09:45.611 0:05:42.341 13686 kbps 20587 kbps 02:10:20.479 18728 kbps 02:10:17.643 17673 kbps 02:10:11.178 71352 bytes 320590 bytes 02:14:38.445
46 2:15:27.953 0:03:09.230 16695 kbps 24708 kbps 02:16:05.699 22216 kbps 02:16:03.738 19750 kbps 02:15:36.336 87038 bytes 403262 bytes 02:16:07.534
47 2:18:37.183 0:01:47.148 14974 kbps 19257 kbps 02:19:06.254 17463 kbps 02:19:04.169 16871 kbps 02:19:03.585 78070 bytes 317412 bytes 02:19:43.083
48 2:20:24.332 0:02:00.286 14832 kbps 20907 kbps 02:21:29.147 19047 kbps 02:21:28.146 18284 kbps 02:21:24.142 77327 bytes 300615 bytes 02:21:02.162
49 2:22:24.619 0:01:22.916 14057 kbps 19367 kbps 02:23:31.352 17428 kbps 02:23:31.185 16383 kbps 02:23:31.603 73288 bytes 326900 bytes 02:22:27.247
50 2:23:47.535 0:05:31.539 14170 kbps 20490 kbps 02:27:20.373 18997 kbps 02:25:11.953 18214 kbps 02:25:11.953 73875 bytes 321569 bytes 02:24:45.385
51 2:29:19.075 0:01:53.738 14517 kbps 19074 kbps 02:30:32.732 17466 kbps 02:30:30.479 16359 kbps 02:30:41.991 75687 bytes 273400 bytes 02:29:22.286
52 2:31:12.813 0:05:51.017 14257 kbps 23056 kbps 02:35:30.154 19725 kbps 02:35:29.987 19377 kbps 02:35:29.820 74330 bytes 304223 bytes 02:33:37.249
53 2:37:03.831 0:00:57.265 13992 kbps 19216 kbps 02:37:42.202 16609 kbps 02:37:46.874 16345 kbps 02:37:41.869 74578 bytes 259502 bytes 02:37:52.504
54 2:38:01.096 0:00:43.543 2614 kbps 11759 kbps 02:38:41.011 5282 kbps 02:38:04.808 4889 kbps 02:38:32.002 15737 bytes 283972 bytes 02:38:32.544
55 2:38:44.640 0:00:01.001 84 kbps 0 kbps 00:00:00.000 0 kbps 00:00:00.000 0 kbps 00:00:00.000 479 bytes 9231 bytes 02:38:45.390

STREAM DIAGNOSTICS:

File PID Type Codec Language Seconds Bitrate Bytes Packets
---- --- ---- ----- -------- -------------- -------------- ------------- -----
00001.M2TS 4113 (0x1011) 0xEA VC-1 9570,186 14999 17943322144 97656665
00001.M2TS 4352 (0x1100) 0x81 AC3 eng (English) 9570,186 192 229690368 1495380
00012.M2TS 4113 (0x1011) 0xEA VC-1 0,876 181 19777 124
<---- END FORUMS PASTE ---->

QUICK SUMMARY:

Disc Title: Double Decker Sandwich 12 (2008) Blu-ray
Disc Size: 23897177141 bytes
Protection: AACS
BD-Java: No
Playlist: 00001.MPLS
Size: 19069580544 bytes
Length: 2:38:45.641
Total Bitrate: 16,02 Mbps
Video: VC-1 Video / 15047 kbps / 1080p / 23,976 fps / 16:9 / Advanced Profile 3
Audio: English / Dolby Digital Audio / 2.0 / 48 kHz / 192 kbps / DN -4dB

********************
PLAYLIST: 00003.MPLS
********************

<--- BEGIN FORUMS PASTE --->
Total Video
Title Codec Length Movie Size Disc Size Bitrate Bitrate Main Audio Track Secondary Audio Track
----- ------ ------- -------------- -------------- ------- ------- ------------------ ---------------------
00003.MPLS VC-1 0:20:08 2413701120 23897177141 15,98 15,01 DD AC3 2.0 192Kbps
DISC INFO:

Disc Title: Double Decker Sandwich 12 (2008) Blu-ray
Disc Size: 23897177141 bytes
Protection: AACS
BD-Java: No
BDInfo: 0.5.8

PLAYLIST REPORT:

Name: 00003.MPLS
Length: 0:20:08.582 (h:m:s.ms)
Size: 2413701120 bytes
Total Bitrate: 15,98 Mbps

VIDEO:

Codec Bitrate Description
----- ------- -----------
VC-1 Video 15011 kbps 1080p / 23,976 fps / 16:9 / Advanced Profile 3

AUDIO:

Codec Language Bitrate Description
----- -------- ------- -----------
Dolby Digital Audio English 192 kbps 2.0 / 48 kHz / 192 kbps / DN -4dB

FILES:

Name Time In Length Size Total Bitrate
---- ------- ------ ---- -------------
00003.M2TS 0:00:00.000 0:20:07.581 2413670400 15990
00012.M2TS 0:20:07.581 0:00:01.000 30720 246

CHAPTERS:

Number Time In Length Avg Video Rate Max 1-Sec Rate Max 1-Sec Time Max 5-Sec Rate Max 5-Sec Time Max 10Sec Rate Max 10Sec Time Avg Frame Size Max Frame Size Max Frame Time
------ ------- ------ -------------- -------------- -------------- -------------- -------------- -------------- -------------- -------------- -------------- --------------
1 0:00:00.000 0:03:10.190 14016 kbps 20918 kbps 00:00:03.003 17426 kbps 00:02:29.524 17179 kbps 00:02:23.852 73930 bytes 302652 bytes 00:02:33.486
2 0:03:10.190 0:04:25.306 16181 kbps 24451 kbps 00:06:55.289 22310 kbps 00:06:58.751 21934 kbps 00:06:54.080 84731 bytes 319198 bytes 00:06:22.715
3 0:07:35.496 0:03:05.184 14045 kbps 25642 kbps 00:09:57.847 20241 kbps 00:09:56.387 17757 kbps 00:09:56.387 73622 bytes 348110 bytes 00:08:11.157
4 0:10:40.681 0:03:02.724 15632 kbps 24707 kbps 00:13:37.608 19485 kbps 00:12:25.870 18618 kbps 00:12:21.782 81964 bytes 362755 bytes 00:11:43.369
5 0:13:43.405 0:03:11.149 15219 kbps 28022 kbps 00:16:31.657 20080 kbps 00:14:17.982 19071 kbps 00:14:17.857 79813 bytes 415823 bytes 00:16:40.666
6 0:16:54.555 0:03:13.026 14594 kbps 25957 kbps 00:20:01.241 20738 kbps 00:19:59.489 17872 kbps 00:19:54.151 76601 bytes 294483 bytes 00:16:56.015
7 0:20:07.581 0:00:01.000 84 kbps 0 kbps 00:00:00.000 0 kbps 00:00:00.000 0 kbps 00:00:00.000 479 bytes 9231 bytes 00:20:08.332

STREAM DIAGNOSTICS:

File PID Type Codec Language Seconds Bitrate Bytes Packets
---- --- ---- ----- -------- -------------- -------------- ------------- -----
00003.M2TS 4113 (0x1011) 0xEA VC-1 1207,498 15024 2267706829 12342030
00003.M2TS 4352 (0x1100) 0x81 AC3 eng (English) 1207,498 192 28982784 188690
00012.M2TS 4113 (0x1011) 0xEA VC-1 0,876 181 19777 124
<---- END FORUMS PASTE ---->

QUICK SUMMARY:

Disc Title: Double Decker Sandwich 12 (2008) Blu-ray
Disc Size: 23897177141 bytes
Protection: AACS
BD-Java: No
Playlist: 00003.MPLS
Size: 2413701120 bytes
Length: 0:20:08.582
Total Bitrate: 15,98 Mbps
Video: VC-1 Video / 15011 kbps / 1080p / 23,976 fps / 16:9 / Advanced Profile 3
Audio: English / Dolby Digital Audio / 2.0 / 48 kHz / 192 kbps / DN -4dB

********************
PLAYLIST: 00008.MPLS
********************

<--- BEGIN FORUMS PASTE --->
Total Video
Title Codec Length Movie Size Disc Size Bitrate Bitrate Main Audio Track Secondary Audio Track
----- ------ ------- -------------- -------------- ------- ------- ------------------ ---------------------
00008.MPLS VC-1 0:12:39 1226754048 23897177141 12,93 12,08 DD AC3 2.0 192Kbps
DISC INFO:

Disc Title: Double Decker Sandwich 12 (2008) Blu-ray
Disc Size: 23897177141 bytes
Protection: AACS
BD-Java: No
BDInfo: 0.5.8

PLAYLIST REPORT:

Name: 00008.MPLS
Length: 0:12:39.191 (h:m:s.ms)
Size: 1226754048 bytes
Total Bitrate: 12,93 Mbps

VIDEO:

Codec Bitrate Description
----- ------- -----------
VC-1 Video 12083 kbps 1080i / 29,970 fps / 16:9 / Advanced Profile 3

AUDIO:

Codec Language Bitrate Description
----- -------- ------- -----------
Dolby Digital Audio English 192 kbps 2.0 / 48 kHz / 192 kbps / DN -4dB

FILES:

Name Time In Length Size Total Bitrate
---- ------- ------ ---- -------------
00006.M2TS 0:00:00.000 0:12:38.190 1226723328 12944
00013.M2TS 0:12:38.190 0:00:01.000 30720 246

CHAPTERS:

Number Time In Length Avg Video Rate Max 1-Sec Rate Max 1-Sec Time Max 5-Sec Rate Max 5-Sec Time Max 10Sec Rate Max 10Sec Time Avg Frame Size Max Frame Size Max Frame Time
------ ------- ------ -------------- -------------- -------------- -------------- -------------- -------------- -------------- -------------- -------------- --------------
1 0:00:00.000 0:01:53.947 12588 kbps 23540 kbps 00:01:30.256 22326 kbps 00:01:28.922 19296 kbps 00:01:23.550 53729 bytes 201216 bytes 00:01:14.307
2 0:01:53.947 0:01:30.523 14934 kbps 31789 kbps 00:02:15.435 26794 kbps 00:02:11.764 23094 kbps 00:02:40.293 62892 bytes 321840 bytes 00:02:15.468
3 0:03:24.470 0:01:23.750 13463 kbps 34885 kbps 00:03:49.062 25359 kbps 00:03:45.158 21088 kbps 00:04:03.109 57201 bytes 359593 bytes 00:04:40.647
4 0:04:48.221 0:01:55.281 10091 kbps 23036 kbps 00:06:07.900 17677 kbps 00:06:31.958 14705 kbps 00:06:27.720 43277 bytes 400786 bytes 00:05:38.671
5 0:06:43.503 0:01:37.330 12233 kbps 31024 kbps 00:07:16.569 20925 kbps 00:07:16.335 16609 kbps 00:07:16.335 51823 bytes 320037 bytes 00:07:16.969
6 0:08:20.833 0:01:28.154 9243 kbps 29560 kbps 00:09:26.132 27564 kbps 00:09:23.429 20778 kbps 00:09:18.391 38979 bytes 214738 bytes 00:08:23.236
7 0:09:48.988 0:01:19.512 10623 kbps 25273 kbps 00:10:14.680 19580 kbps 00:10:11.611 17221 kbps 00:10:41.540 45808 bytes 211611 bytes 00:09:50.656
8 0:11:08.501 0:01:29.689 13889 kbps 26360 kbps 00:11:24.316 20753 kbps 00:11:24.316 19376 kbps 00:11:21.414 58606 bytes 237544 bytes 00:11:24.350
9 0:12:38.190 0:00:01.000 68 kbps 0 kbps 00:00:00.000 0 kbps 00:00:00.000 0 kbps 00:00:00.000 305 bytes 6939 bytes 00:12:38.791

STREAM DIAGNOSTICS:

File PID Type Codec Language Seconds Bitrate Bytes Packets
---- --- ---- ----- -------- -------------- -------------- ------------- -----
00006.M2TS 4113 (0x1011) 0xEA VC-1 758,091 12100 1146624023 6245277
00006.M2TS 4352 (0x1100) 0x81 AC3 eng (English) 758,091 192 18196992 118470
00013.M2TS 4113 (0x1011) 0xEA VC-1 0,901 138 15485 104
<---- END FORUMS PASTE ---->

QUICK SUMMARY:

Disc Title: Double Decker Sandwich 12 (2008) Blu-ray
Disc Size: 23897177141 bytes
Protection: AACS
BD-Java: No
Playlist: 00008.MPLS
Size: 1226754048 bytes
Length: 0:12:39.191
Total Bitrate: 12,93 Mbps
Video: VC-1 Video / 12083 kbps / 1080i / 29,970 fps / 16:9 / Advanced Profile 3
Audio: English / Dolby Digital Audio / 2.0 / 48 kHz / 192 kbps / DN -4dB
General #0
ID : 0 (0x0)
Complete name : Double Decker Sandwich 12 (2008) Blu-ray\BDMV\STREAM\00001.m2ts
Format : BDAV
Format/Info : Blu-ray Video
File size : 17.8 GiB
Duration : 2h 39mn
Overall bit rate : 16.0 Mbps
Maximum Overall bit rate : 48.0 Mbps
Video #4113
ID : 4113 (0x1011)
Menu ID : 1 (0x1)
Format : VC-1
Format profile : AP@L3
Codec ID : 234
Duration : 2h 39mn
Bit rate : 15.1 Mbps
Width : 1 920 pixels
Height : 1 080 pixels
Display aspect ratio : 16:9
Frame rate : 23.976 fps
Chroma subsampling : 4:2:0
Bit depth : 8 bits
Scan type : Progressive
Compression mode : Lossy
Bits/(Pixel*Frame) : 0.304
Stream size : 16.9 GiB (95%)
Audio #4352
ID : 4352 (0x1100)
Menu ID : 1 (0x1)
Format : AC-3
Format/Info : Audio Coding 3
Mode extension : CM (complete main)
Codec ID : 129
Duration : 2h 39mn
Bit rate mode : Constant
Bit rate : 192 Kbps
Channel(s) : 2 channels
Channel positions : Front: L R
Sampling rate : 48.0 KHz
Bit depth : 16 bits
Compression mode : Lossy
Stream size : 219 MiB (1%)


 ·  , , FAQ-
:  [ 21--2013 06:58 ]

  

.torrent

.torrent 115 KB


: 22.26 GB
(hash) : b8b674dee1e6c0f72116c4292d0878ffbc5142e2
··
...

Double Decker Sandwich 12 12 . !

!