Скачать порно через торрент Isaku Исаку UnionPeer.org бесплатно онлайн HD качество

Скачать новое порно 2015, 2014 новинки через торрент UnionPeer.org

Порно торрент бесплатно ЮнионПир.орг

Если у вас наблюдаются проблемы со скриншотами, переходом по ссылками, скачиванием торрентов - проблемы в блокировщике рекламы AdBlock. #хорошегоДня!


Статистика раздачи
Размер:  4.01 GB   |    Зарегистрирован:  3 года 9 месяцев   |    .torrent скачан:  72 раза   |   
Раздают:  1  
   
Загрузка...
 
Автор Сообщение

LinGr

avatar LinGr


Isaku / 遺作 / Исаку
Год производства: 1997 г.
Жанр: Rape, Yuri, Female Students, School, BDSM, bondage, group sex, oral sex
Серии: ep. 3+SP of 1-3 +SP
Продолжительность: ep. 3 ~ 28 min, SP ~ 30 min
Цензура: Есть

Озвучка: Японская (Оригинальная)

Режиссер: Kanazawa Katsuma
Автор оригинала: Elf, Hiruta Masato
Студия: Pink Pineapple

ОписаниеRUS :
Последний день школы перед летними каникулами. Неожиданно Кента получает таинственное письмо. После школы, он идет в старое, заброшенное школьное здание, как говорилось в письме. Там он встречает Джинпачи, Миюки, Рику, Котоми, Акеми, учительницу Ками, Мунемицу и Мио. Выясняется что все получили одинаковые письма. Каждый решает, что это - чья то шутка, и начинают спорить кто бы это мог быть. Внезапно, они слышат как кто-то забивает вход... Кошмар начинается, поскольку девочки исчезают одна за другой. Рика - первая исчезнувшая, её изнасиловали...

Описание ENG:
It''s the last day of school before summer vacation. Kenta is gearing up for another boring summer when he receives a mysterious note. After school, he walks into the old, condemned school building, following the note''s instructions. Inside, he finds that Jinpachi, Miyuki, Rika, Kotomi, Akemi, Ms. Kumi, Munemitsu and Mio have received the same note as well. Everyone decides that this is some kind of a joke, and starts arguing about the identity of the prankster. Suddenly, they hear the entrance being boarded up... The nightmare begins as the girls vanish one by one. Rika is the first one to disappear, followed by a shocking video of Rika being violated by an unknown assailant... A twisted story filled with scenes of shocking and graphic hardcore sex!!!

Информационные ссылки: AniDB - MAL - World Art - ХентайМаг

Доп. информация: На этом диске (японское издание) 3-я серия + бонусный эпизод, бонусный эпизод - есть только в этом издании.
Спасибо: caifrat

Качество видео: DVD5
Формат видео: DVD Video
Видео кодек: MPEG2
Аудио кодек: AC3
Видео: 720х480, (4:3), 29,970 кадров/сек, ~ 9495 Кбит/сек, NTSC
Аудио: JAP, AC-3, 2 канала, 192 Кбит/сек, 48,0 КГц
Доп. материалы: Арт-материалы
Общее
Полное имя : J:\VIDEO_TS\VTS_01_1.VOB
Формат : MPEG-PS
Размер файла : 1024 Мбайт
Продолжительность : 14 м.
Режим общего битрейта : Переменный
Общий поток : 9884 Кбит/сек

Видео
Идентификатор : 224 (0xE0)
Формат : MPEG Video
Версия формата : Version 2
Профиль формата : Main@Main
Параметр BVOP формата : Да
Параметр матрицы формата : Выборочная
Параметр GOP формата : M=3, N=12
Продолжительность : 14 м.
Вид битрейта : Переменный
Битрейт : 9495 Кбит/сек
Максимальный битрейт : 9600 Кбит/сек
Ширина : 720 пикселей
Высота : 480 пикселей
Соотношение сторон : 4:3
Частота кадров : 29,970 кадров/сек
Стандарт вещания : NTSC
Цветовое пространство : YUV
Субдискретизация насыщенности : 4:2:0
Битовая глубина : 8 бит
Тип развёртки : Чересстрочная
Порядок развёртки : Верхнее поле первое
Метод сжатия : С потерями
Бит/(Пиксели*Кадры) : 0.917
Временной код первого кадра : 01:00:06:00
Оригинал временного кода : Group of pictures header
Размер потока : 983 Мбайт (96%)

Аудио
Идентификатор : 189 (0xBD)-128 (0x80)
Формат : AC-3
Формат/Информация : Audio Coding 3
Расширение режима : CM (complete main)
Параметр Endianness формата : Big
Режим смешивания : DVD-Video
Продолжительность : 14 м.
Вид битрейта : Постоянный
Битрейт : 192 Кбит/сек
Каналы : 2 канала
Расположение каналов : Front: L R
Частота : 48,0 КГц
Битовая глубина : 16 бит
Метод сжатия : С потерями
Размер потока : 19,9 Мбайт (2%)

Меню


Трекер:  [ 20-Окт-2013 17:52 ]

  

Скачать .torrent

Размер .torrent файла 10 KB


Размер: 4.01 GB
Хэш (hash) релиза: a339bd358d1d6538095d871a0480fcbbaaf8cab2

bot

Топик был перенесен в форум Хентай | С цензурой

Перенес LinGr

Хотите добавить комментарий к записи скачать торрент Isaku Исаку

!Обратная связь