Скачать через торрент Первый шаг бесплатно Аниме Все серии на русском torrent

Если у вас наблюдаются проблемы со скриншотами, переходом по ссылками, скачиванием торрентов - проблемы в блокировщике рекламы AdBlock. #хорошегоДня!


Статистика раздачи
Размер:  1.01 GB   |    Зарегистрирован:  3 года 11 месяцев   |    .torrent скачан:  30 раз   |   
Раздают:  1  
   
Загрузка...
 
Автор Сообщение

Polarnik

avatar Polarnik


Первый шаг [ТВ-3]Hajime no Ippo: The Fighting! Rising
Год выпуска: 2013
Страна: Япония
Жанр: спорт
Тип: ТВ (25 эп.)
Продолжительность: ~ 25 мин.
Озвучка:
Оригинальная
NIKITOS (одноголосая)
Zendos & Eladiel (двухголосая)
Субтитры:
General TAB (полные)
Студия: Madhouse Studio
Режиссер: Сисидо Дзюн
Описание: Иппо Макуночи очень стеснительный и робкий ученик старшей школы. У него почти нет друзей, ведь все свободное время он помогает своей семье с работой. В семье Иппо осталась одна мать, а с рыболовецким магазином самому управиться крайне сложно. Благодаря каждодневной работе Иппо довольно спортивен, однако из-за кроткого нрава он все равно получает от своих одноклассников и бегает на подачках. Конечно к старшей школе ему это надоедает и он решает научиться драться, а тут подворачивается странный парень, однажды спасший его от хулиганов. Очухивается Иппо от звуков тренировки, как оказывается, его спаситель — чемпион и подающий огромные надежды боксер Мамору Такамура. Вот он и приводит его в тренировочный зал Камогава, где наш герой и будет совершать свои первые шаги по пути к становлению настоящим профи.
01. Round 01
02. Round 02

Ссылки: World-Art | AniDB | ANN
Качество: HDTVRip [Leopard-Raws] | Тип видео: без хардсаба | Формат: mp4

Видео: x264, 8 bit, 1280x720 (16:9), 23.976 fps, ~2200 Kbps, 0.100 bit/pixel
Аудио:
AAC, 48,0 kHz, stereo, 2ch, VBR ~192 kbps - встроенное
AAC, 48,0 kHz, stereo, 2ch, VBR ~192 kbps - отдельное - NIKITOS
AAC, 48,0 kHz, stereo, 2ch, VBR ~180 kbps - отдельное - Zendos & Eladiel
Субтитры:
ASS - отдельные - General TAB
Чаптеры: отсутствуют
Общее
Полное имя : [Leopard-Raws] Hajime no Ippo - The Fighting! Rising - 01 RAW (NTV 1280x720 x264 AAC).mp4
Формат : MPEG-4
Профиль формата : Base Media
Идентификатор кодека : isom
Размер файла : 394 Мбайт
Продолжительность : 23 м.
Режим общего битрейта : Переменный
Общий поток : 2395 Кбит/сек
Дата кодирования : UTC 2013-10-05 21:06:30
Дата пометки : UTC 2013-10-05 21:06:30

Видео
Идентификатор : 1
Формат : AVC
Формат/Информация : Advanced Video Codec
Профиль формата : High@L4.1
Параметр CABAC формата : Да
Параметр ReFrames формата : 4 кадра
Идентификатор кодека : avc1
Идентификатор кодека/Информация : Advanced Video Coding
Продолжительность : 22 м.
Битрейт : 2200 Кбит/сек
Максимальный битрейт : 22,9 Мбит/сек
Ширина : 1280 пикселей
Высота : 720 пикселей
Соотношение сторон : 16:9
Режим частоты кадров : Постоянный
Частота кадров : 23,976 кадра/сек
Цветовое пространство : YUV
Субдискретизация насыщенности : 4:2:0
Битовая глубина : 8 бит
Тип развёртки : Прогрессивная
Бит/(Пиксели*Кадры) : 0.100
Размер потока : 362 Мбайт (92%)
Заголовок : 264:fps=23.976@GPAC0.5.1-DEV-rev4283
Библиотека кодирования : x264 core 129 r2245+729M 1a52e03
Настройки программы : cabac=1 / ref=4 / deblock=1:1:-1 / analyse=0x3:0x113 / me=umh / subme=9 / psy=1 / fade_compensate=0.00 / psy_rd=1.00:0.00 / mixed_ref=1 / me_range=24 / chroma_me=1 / trellis=2 / 8x8dct=1 / cqm=0 / deadzone=21,11 / fast_pskip=1 / chroma_qp_offset=-2 / threads=8 / lookahead_threads=1 / sliced_threads=0 / nr=0 / decimate=1 / interlaced=0 / bluray_compat=0 / constrained_intra=0 / fgo=0 / bframes=9 / b_pyramid=2 / b_adapt=2 / b_bias=0 / direct=1 / weightb=1 / open_gop=0 / weightp=2 / keyint=240 / keyint_min=24 / scenecut=40 / intra_refresh=0 / rc=crf / mbtree=0 / crf=19.0 / qcomp=0.72 / qpmin=0 / qpmax=69 / qpstep=4 / ip_ratio=1.40 / pb_ratio=1.30 / aq=1:0.85
Дата кодирования : UTC 2013-10-05 21:06:30
Дата пометки : UTC 2013-10-05 21:06:33
Основные цвета : BT.709
Характеристики трансфера : BT.709
Коэффициенты матрицы : BT.709

Аудио
Идентификатор : 2
Формат : AAC
Формат/Информация : Advanced Audio Codec
Профиль формата : LC
Идентификатор кодека : 40
Продолжительность : 23 м.
Вид битрейта : Переменный
Битрейт : 192 Кбит/сек
Максимальный битрейт : 228 Кбит/сек
Каналы : 2 канала
Расположение каналов : Front: L R
Частота : 48,0 КГц
Метод сжатия : С потерями
Размер потока : 31,5 Мбайт (8%)
Язык : Japanese
Дата кодирования : UTC 2013-10-05 17:59:20
Дата пометки : UTC 2013-10-05 21:06:33


Трекер:  [ 21-Окт-2013 15:52 ]

  

Скачать .torrent

Размер .torrent файла 12 KB


Размер: 1.01 GB
Хэш (hash) релиза: 48a3f1e788b360a88bf19882b6805837c7ee974d
Подписка на обновления:

Торренты, похожие на Первый шаг скачать торрент

Форум Название Автор Размер S L Добавлен
Аниме | Rips ·· Первый шаг (ОВА) / Hajime no Ippo: Mashiba vs Kimura - Shikei Shikkou (Намба Хитоси) [OVA] [1 из 1] [без хардсаба] [RUS(ext),JAP+SUB] [2003, комедия, драма, спорт, DVDRip] Galfimbul 11002280871.02 GB 0 0 1487631502

01:58

21-Фев-17

Аниме | Rips ·· Первый шаг: Путь чемпиона / Hajime no Ippo: Champion Road (Нисимура Сатоси) [TV Special] [1 из 1] [без хардсаба] [RUS(ext),JAP+SUB] [2003, комедия, драма, спорт, DVDRip] Galfimbul 22899380412.13 GB 0 0 1487435329

19:28

18-Фев-17

Аниме | Rips ·· Первый шаг (ОВА) / Hajime no Ippo: Mashiba vs Kimura - Shikei Shikkou (Нисимура Сатоси) [OVA] [1 из 1] [без хардсаба] [RUS(ext),JAP+SUB] [2003, комедия, драма, спорт, DVDRip] Galfimbul 13057666911.22 GB 0 0 1487435321

19:28

18-Фев-17

Аниме | Rips ·· Первый шаг (ТВ-1) / Hajime no Ippo: The Fighting (Нисимура Сатоси) [TV+Special] [1-7+0 из 75+1] [без хардсаба] [RUS(ext),JAP+SUB] [2000, комедия, драма, спорт, DVDRip] Galfimbul 40595636483.78 GB 0 0 1486390063

17:07

6-Фев-17

Аниме | HD Rips ·· Первые шаги 2 / Baby Steps (2015) / Мелкими шажками 2 [TV] [25 из 25] [без хардсаба] [JAP+SUB] [2015 г., сёнэн, спорт, романтика, школа, WebRip] [1080p] Galfimbul 1470370125713.69 GB 0 0 1447582364

13:12

15-Ноя-15

Аниме | HD Rips ·· Первые шаги 2 / Baby Steps (2015) / Мелкими шажками 2 [TV] [25 из 25] [без хардсаба] [JAP, SUB] [2015 г., сёнен, спорт, романтика, школа, WebRip] [1080p] Galfimbul 1470370999013.69 GB 0 0 1443403303

04:21

28-Сен-15

Аниме | HD Rips ·· Первый шаг (ТВ-3) / Hajime no Ippo: The Fighting! Rising [TV] [25 из 25] [без хардсаба] [RUS(int), JAP+SUB] [2013 г., спорт, HDTVRip] [720p] Galfimbul 103091169309.6 GB 0 0 1418312494

18:41

11-Дек-14

Аниме | Rips ·· Первые шаги / Baby Steps (Мурата Масахико) [TV] [19 из 25] [Без хардсаба] [RUS(int), JAP+SUB] [2014 г., спорт, школа, романтика, HDTVRip] [HWP] Galfimbul 65961634456.14 GB 0 0 1409130030

12:00

27-Авг-14

Аниме | HD Rips ·· Первый шаг / Hajime no Ippo: The Fighting! Rising (Сисидо Дзюн) [TV] [01-21 из 25] [Без хардсаба] [JAP+SUB] [2013 г., спорт, WEBRip] [720p] Polarnik 68565465826.39 GB 0 0 1381071714

18:01

6-Окт-13

Аниме | HD Rips ·· Первый шаг / Hajime no Ippo: The Fighting! Rising (Сисидо Дзюн) [TV] [01-21 из 25] [Без хардсаба] [JAP+SUB] [2013 г., спорт, WEBRip] [1080p] Polarnik 1150632281710.72 GB 0 0 1381071706

18:01

6-Окт-13

Манга ·· Морикава Джордж / MORIKAWA Jyoji - Первый шаг / Hajime no Ippo [главы 1-250, 269-287, 389-641, 839 из 1031+] [manga] [1989] [incomplete](обновлено 15.09.2013) Polarnik 39512369143.68 GB 0 0 1379277338

23:35

15-Сен-13

Манга ·· Морикава Джордж / MORIKAWA Jyoji - Первый шаг / Hajime no Ippo [главы 1-235, 269-287, 389-629, 839 из 1025+] [manga] [1989] [incomplete](обновлено 14.07.2013) Polarnik 35531893763.31 GB 0 0 1373813075

17:44

14-Июл-13

Манга ·· Морикава Джордж / MORIKAWA Jyoji - Первый шаг / Hajime no Ippo [главы 1-205, 269-277, 389-589, 839 из 1000+] [manga] [1989] [incomplete](обновлено 01.12.2012) Polarnik 26452351362.46 GB 0 0 1354967040

14:44

8-Дек-12

Аниме | Rips ·· Первый шаг / Fighting Spirit / Hajime no Ippo TV / The First Step [TV] [1-2 из 75] [Без хардсаба] [RUS(int)] [2000-2002 гг., комедия, драма, спорт, DVDRip] Galfimbul 510003971486 MB 0 0 1348833900

15:05

28-Сен-12

Манга ·· Морикава Джордж / MORIKAWA Jyoji - Первый шаг / Hajime no Ippo [главы 1-196, 269-277, 389-561, 839 из 988+] [manga] [1989-2011] [incomplete] (обновлено 26.08.2012) Yuki-san 23517875692.19 GB 0 0 1346003280

20:48

26-Авг-12

Аниме | Rips ·· Первый шаг / The First Step / Hajime no Ippo [TV][1-76 из 76][JAP+SUB][2000 г., комедия, драма, спорт, сёнэн, TVRip] Adamant 1737112754116.18 GB 0 0 1290021838

22:23

17-Ноя-10

Аниме | HD Rips ·· Первый шаг (второй сезон) / Hajime no Ippo: New Challenger (Сисидо Дзюн) [TV][26 из 26][без хардсаба][RUS(ext),JAP+SUB][2009 г., комедия, драма, спорт, сёнэн, HDTVRip][720p] Bot 1101852664210.26 GB 1 1 1286480919

22:48

7-Окт-10

Еще никто не оставлял запись к записи скачать торрент Первый шаг . Будь первым!

!Обратная связь