Скачать порно через торрент Pine N Cure queue UnionPeer.org бесплатно онлайн HD качество

Скачать новое порно 2015, 2014 новинки через торрент UnionPeer.org

Порно торрент бесплатно ЮнионПир.орг

Если у вас наблюдаются проблемы со скриншотами, переходом по ссылками, скачиванием торрентов - проблемы в блокировщике рекламы AdBlock. #хорошегоДня!


Статистика раздачи
Размер:  321 MB   |    Зарегистрирован:  4 года 1 месяц   |    .torrent скачан:  582 раза   |   
Раздают:  1  
   
Загрузка...
 
Автор Сообщение

LinGr

avatar LinGr



Pine N Cure queue / きゅあきゅんパイン
Год производства: 2013 г.
Reslese 2013/10/10
Жанр: Clothing, anime, makeover heroine ,Bukkake
Продолжительность: 5:37
Цензура: Есть во всех файлах

Язык: Японский
Озвучка: Оригинальная
Субтитры: Встроенные неотключаемые (хардсаб)

Студия:Logical Kagura baggage door | DLLSite


Описание:
I summoned to your room that girl yellow fresh !
Erotic liquid expression of feelings !
Utility up in the booth allocation representation !

★ Heart of yellow sign of daughter naughty !? ★

"That , do you not me that ... naughty with me ... I ?
Seshi your Oh ... Do you ... want 'm no good ... ? "

Shame of man is innocent silver platter ... is cute Segama to that girl !
With cum ! The Bukkake to OK! Whole body Anal !
It served a sweet temporary fresh !
Качество видео: GameRip
Формат видео: WMV
Видео кодек: Windows Media
Аудио кодек: WMA
Видео: Windows Media Video 9 952x712 30fps 8232kbps
Аудио 1: WMA Pro 32000Hz stereo 32kbps
Video
ID : 1
Format : VC-1
Format profile : MP@HL
Codec ID : WMV3
Codec ID/Info : Windows Media Video 9
Codec ID/Hint : WMV3
Description of the codec : Windows Media Video 9
Duration : 5mn 18s
Bit rate mode : Variable
Bit rate : 8 233 Kbps
Width : 952 pixels
Height : 712 pixels
Display aspect ratio : 4:3
Frame rate : 30.000 fps
Bit depth : 8 bits
Scan type : Progressive
Compression mode : Lossy
Bits/(Pixel*Frame) : 0.405
Stream size : 313 MiB (97%)
Language : Latvian

Audio
ID : 2
Format : WMA
Format profile : Pro
Codec ID : 162
Codec ID/Info : Windows Media Audio
Description of the codec : Windows Media Audio 10 Professional - 32 kbps, 32 kHz, 2 channel 16 bit (A/V) 1-pass CBR
Duration : 5mn 18s
Bit rate mode : Constant
Bit rate : 32.0 Kbps
Channel(s) : 2 channels
Sampling rate : 32.0 KHz
Bit depth : 16 bits
Stream size : 1.21 MiB (0%)


Трекер:  [ 20-Окт-2013 00:28 ]

  

Скачать .torrent

Размер .torrent файла 13 KB


Размер: 321 MB
Хэш (hash) релиза: 9e274a81a2ed2ea33597cd78fce7be9f5f25d57f

bot

Топик был перенесен в форум Хентай | С цензурой

Перенес LinGr

Хотите добавить комментарий к записи скачать торрент Pine N Cure queue

!Обратная связь