Скачать порно через торрент [RusAmateur-X.net] Безотказная UnionPeer.org бесплатно онлайн HD качество

Скачать новое порно 2015, 2014 новинки через торрент UnionPeer.org

Порно торрент бесплатно ЮнионПир.орг

Если у вас наблюдаются проблемы со скриншотами, переходом по ссылками, скачиванием торрентов - проблемы в блокировщике рекламы AdBlock. #хорошегоДня!


Статистика раздачи
Размер:  191 MB   |    Зарегистрирован:  4 года   |    .torrent скачан:  834 раза   |   
Раздают:  1  
   
Загрузка...
 
Автор Сообщение

LinGr

avatar LinGr


Безотказная
Год производства: 2013 г.
Подсайт и сайт: RusAmateur-X.net

Жанр: Amateur,Russian,Teen,Groupsex
Продолжительность: 00:24:51

Описание: Девица дает всем подряд!

Качество видео: CamRip
Формат видео: AVI
Видео кодек: XviD
Аудио кодек: MP3
Видео: Xvid 720x480 930kbps 29.97fps
Аудио: MP3 48000Hz stereo 128kbps
Format : AVI
Format/Info : Audio Video Interleave
File size : 191 MiB
Duration : 24mn 51s
Overall bit rate : 1 072 Kbps
Writing application : Lavf52.57.1

Video
ID : 0
Format : xvid
Codec ID : xvid
Duration : 24mn 51s
Bit rate : 930 Kbps
Width : 720 pixels
Height : 480 pixels
Display aspect ratio : 3:2
Frame rate : 29.970 fps
Standard : NTSC
Bits/(Pixel*Frame) : 0.090
Stream size : 165 MiB (87%)

Audio
ID : 1
Format : MPEG Audio
Format version : Version 1
Format profile : Layer 3
Mode : Joint stereo
Mode extension : MS Stereo
Codec ID : 55
Codec ID/Hint : MP3
Duration : 24mn 51s
Bit rate mode : Constant
Bit rate : 128 Kbps
Channel count : 2 channels
Sampling rate : 48.0 KHz
Compression mode : Lossy
Stream size : 22.8 MiB (12%)
Alignment : Aligned on interleaves
Interleave, duration : 24 ms (0.72 video frame)


Трекер:  [ 19-Окт-2013 13:44 ]

  

Скачать .torrent

Размер .torrent файла 15 KB


Размер: 191 MB
Хэш (hash) релиза: 4aed9cbbd94f357eb1722f697d3a1c2ac6b73159

Еще никто не оставлял запись к записи скачать торрент [RusAmateur-X.net] Безотказная . Будь первым!

!Обратная связь