Скачать порно через торрент С тремя в общаге UnionPeer.org бесплатно онлайн HD качество

Скачать новое порно 2015, 2014 новинки через торрент UnionPeer.org

Порно торрент бесплатно ЮнионПир.орг

Если у вас наблюдаются проблемы со скриншотами, переходом по ссылками, скачиванием торрентов - проблемы в блокировщике рекламы AdBlock. #хорошегоДня!


Статистика раздачи
Размер:  228 MB   |    Зарегистрирован:  3 года 10 месяцев   |    .torrent скачан:  689 раз   |   
Раздают:  1  
   
Загрузка...
 
Автор Сообщение

LinGr

avatar LinGr


С тремя в общаге
Год производства: 2013 г.
Жанр: Amateur,Russian,Teen,Groupsex.
Продолжительность: 00:17:32

Описание: Общага.Студенты.Оргия

Доп. информация: Выложил по просьбам , файл сам не раздувал.

Качество видео: CamRip
Формат видео: WMV
Видео кодек: Windows Media
Видео: Windows Media Video 8 640x480 4889kbps
Аудио: WMA 2 44100Hz stereo 384kbps
Format : Windows Media
File size : 228 MiB
Duration : 17mn 32s
Overall bit rate : 1 816 Kbps
Maximum Overall bit rate : 5 384 Kbps
Encoded date : UTC 1970-01-01 00:00:00.000
Video #1
ID : 1
Format : WMV2
Codec ID : WMV2
Codec ID/Info : Windows Media Video 8
Description of the codec : wmv2
Duration : 17mn 32s
Bit rate : 1 351 Kbps
Width : 640 pixels
Height : 480 pixels
Display aspect ratio : 4:3
Frame rate : 29.970 fps
Bit depth : 8 bits
Bits/(Pixel*Frame) : 0.147
Stream size : 169 MiB (74%)
Audio #2
ID : 2
Format : WMA
Format version : Version 2
Codec ID : 161
Codec ID/Info : Windows Media Audio
Description of the codec : Windows Media Audio V8
Duration : 17mn 32s
Bit rate : 384 Kbps
Channel count : 2 channels
Sampling rate : 44.1 KHz
Bit depth : 16 bits
Stream size : 48.2 MiB (21%)


Трекер:  [ 19-Окт-2013 07:54 ]

  

Скачать .torrent

Размер .torrent файла 18 KB


Размер: 228 MB
Хэш (hash) релиза: 50127a0479128083ad6e193ea870b14944ca1779

Еще никто не оставлял запись к записи скачать торрент С тремя в общаге . Будь первым!

!Обратная связь