Скачать порно через торрент 15 Bishoujo Hyouryuuki The Story of 15 Beautiful Girls Adrift UnionPeer.org бесплатно онлайн HD качество

Скачать новое порно 2015, 2014 новинки через торрент UnionPeer.org

Порно торрент бесплатно ЮнионПир.орг

Если у вас наблюдаются проблемы со скриншотами, переходом по ссылками, скачиванием торрентов - проблемы в блокировщике рекламы AdBlock. #хорошегоДня!


Статистика раздачи
Размер:  5.67 GB   |    Зарегистрирован:  3 года 9 месяцев   |    .torrent скачан:  349 раз   |   
Раздают:  1  
   
Загрузка...
 
Автор Сообщение

LinGr

avatar LinGr


15 Bishoujo Hyouryuuki / The Story of 15 Beautiful Girls Adrift / 15美少女漂流記
История о 15 прекрасных девушках

Год производства: 2009 г.
Жанр: Anal sex, Big tits, Group sex, Oral sex, Titsjob, Harem
Серии: ep. 1-2 of 3
Продолжительность: 2х~27 min
Цензура: Есть

Озвучка: Японская (Оригинальная)
Субтитры: Японские

Автор оригинала: BugBug
Студия: Horipro, T-Rex

Описание RUS:
История про то как на необитаемом острове оказалось пятнадцать красивых девушек и один молодой парнишка по имени Казуя Курода (Kazuya Kuroda). В хентай аниме 15 красивых девушек, рассказывается как парень по имени Казуя, случайно нашёл водонепроницаемую камеру и решил опробовать её на деле, начав снимать по началу красивые женские тела и эротические позы, а потом и до эротического и непристойного порно дошло, самое интересное что пятнадцать красавиц сами были согласны на эту эротическую и не пристойную съемку. Так и открыл Казуя Курода, свой талант в искусстве, начав снимать непристойные видео с девушками на острове.

Описание ENG:
15 Bishoujo Hyouryuuki is the brainchild of adult game creator Takahiro and anime character designer Kuroda Kazuya. The name is a wordplay on the Japanese title (15 Shounen Hyouryuuki) for Two Years' Vacation, a children's adventure story by Jules Verne. Toei Animation adapted 15 Shounen Hyouryuuki into a 1982 movie, and Nippon Animation remade the story into a 1987 television special.
Like the original story and its two anime remakes in the 1980s, the new 15 Bishoujo Hyouryuuki project centers on 15 young students who are stranded on a deserted Pacific island by a tumultuous storm. Unlike the previous versions, 15 Bishoujo Hyouryuuki will feature 15 girls instead of 15 boys.

Информационные ссылки: AniDB - MAL - World Art - ХентайМаг

Качество видео: 2x DVD5
Формат видео: DVD Video
Видео кодек: MPEG2
Аудио кодек: AC3
Видео: 720х480, (16:9), 29,970 кадров/сек, ~ 8000 Кбит/сек, NTSC
Аудио №1: JAP, AC-3, 2 канала, 384 Кбит/сек, 48,0 КГц
Аудио №2: JAP, AC-3, 2 канала, 384 Кбит/сек, 48,0 КГц
Общее
Полное имя : J:\VIDEO_TS\VTS_01_1.VOB
Формат : MPEG-PS
Размер файла : 1024 Мбайт
Продолжительность : 15 м.
Режим общего битрейта : Переменный
Общий поток : 9078 Кбит/сек

Видео
Идентификатор : 224 (0xE0)
Формат : MPEG Video
Версия формата : Version 2
Профиль формата : Main@Main
Параметр BVOP формата : Да
Параметр матрицы формата : Выборочная
Параметр GOP формата : Variable
Продолжительность : 15 м.
Вид битрейта : Переменный
Битрейт : 8129 Кбит/сек
Максимальный битрейт : 9800 Кбит/сек
Ширина : 720 пикселей
Высота : 480 пикселей
Соотношение сторон : 16:9
Частота кадров : 29,970 кадров/сек
Стандарт вещания : NTSC
Цветовое пространство : YUV
Субдискретизация насыщенности : 4:2:0
Битовая глубина : 8 бит
Тип развёртки : Чересстрочная
Порядок развёртки : Верхнее поле первое
Метод сжатия : С потерями
Бит/(Пиксели*Кадры) : 0.785
Временной код первого кадра : 01:00:00:00
Оригинал временного кода : Group of pictures header
Размер потока : 917 Мбайт (90%)

Аудио #1
Идентификатор : 189 (0xBD)-128 (0x80)
Формат : AC-3
Формат/Информация : Audio Coding 3
Расширение режима : CM (complete main)
Параметр Endianness формата : Big
Режим смешивания : DVD-Video
Продолжительность : 15 м.
Вид битрейта : Постоянный
Битрейт : 384 Кбит/сек
Каналы : 2 канала
Расположение каналов : Front: L R
Частота : 48,0 КГц
Битовая глубина : 16 бит
Метод сжатия : С потерями
Размер потока : 43,3 Мбайт (4%)

Аудио #2
Идентификатор : 189 (0xBD)-129 (0x81)
Формат : AC-3
Формат/Информация : Audio Coding 3
Расширение режима : CM (complete main)
Параметр Endianness формата : Big
Режим смешивания : DVD-Video
Продолжительность : 15 м.
Вид битрейта : Постоянный
Битрейт : 384 Кбит/сек
Каналы : 2 канала
Расположение каналов : Front: L R
Частота : 48,0 КГц
Битовая глубина : 16 бит
Метод сжатия : С потерями
Размер потока : 43,3 Мбайт (4%)

Текст #1
Идентификатор : 189 (0xBD)-32 (0x20)
Формат : RLE
Формат/Информация : Run-length encoding
Режим смешивания : DVD-Video
Продолжительность : 15 м.
Задержка видео : 1 с. 134 мс.

Текст #2
Идентификатор : 189 (0xBD)-33 (0x21)
Формат : RLE
Формат/Информация : Run-length encoding
Режим смешивания : DVD-Video
Продолжительность : 15 м.
Задержка видео : 1 с. 134 мс.

Меню


Трекер:  [ 19-Окт-2013 07:55 ]

  

Скачать .torrent

Размер .torrent файла 15 KB


Размер: 5.67 GB
Хэш (hash) релиза: acce807f324d50820484e698de3e7943da8a9da6

bot

Топик был перенесен в форум Хентай | С цензурой

Перенес LinGr

Хотите добавить комментарий к записи скачать торрент 15 Bishoujo Hyouryuuki The Story of 15 Beautiful Girls Adrift

!Обратная связь