Скачать через торрент История трёх сестёр Galilei Donna бесплатно Аниме Все серии на русском torrent

Если у вас наблюдаются проблемы со скриншотами, переходом по ссылками, скачиванием торрентов - проблемы в блокировщике рекламы AdBlock. #хорошегоДня!


Статистика раздачи
Размер:  725 MB   |    Зарегистрирован:  3 года 11 месяцев   |    .torrent скачан:  5 раз   |   
Раздают:  1  
   
Загрузка...
 
Автор Сообщение

Polarnik

avatar Polarnik


История трёх сестёрGalilei Donna / ガリレイドンナ
Год выпуска: 2013
Страна: Япония
Жанр: приключения
Тип: ТВ (11 эп.)
Продолжительность: ~ 25 мин.
Озвучка:
Оригинальная
Zendos & Eladiel (двухголосая)
NikaLenina & Trina_D & Shina & JAM & BalFor & Cuba77 (многоголосая)
Субтитры:
zafhos (полные)
Holydarkness, Stan WarHammer, Nesitach, Asca (полные)
Студия: A-1 Pictures Inc.
Режиссер: Умэцу Ясуоми
Описание: Действие разворачивается в 2061 году, когда глобальное потепление было заборото, а на носу новый ледниковый период. Трое потомков Галилео Галилея – сёстры Ходзуки, Хадзуки и Кадзуки Феррари – беззаботно живут в итальянской Тоскане, но ровно до того момента, как на них нападают представители некой таинственной организации, которым нужно нечто под названием «Галилео Тезоро». В результате цепочки событий сёстры попадают в международный розыск и теперь вынуждены объединить свои силы, дабы справиться с навалившимися проблемами.
01. Galileo DNA
02. Messier

Ссылки: World-Art | AniDB | ANN
Качество: HDTVRip [Leopard-Raws] | Тип видео: без хардсаба | Формат: mp4

Видео: x264, 8 bit, 1280x720 (16:9), 23.976 fps, ~2026 Kbps, 0.092 bit/pixel
Аудио:
AAC, 48,0 kHz, stereo, 2ch, VBR ~192 kbps - встроенное
AAC, 48,0 kHz, stereo, 2ch, VBR ~193 kbps - отдельное - Zendos & Eladiel
AAC, 48,0 kHz, stereo, 2ch, VBR ~192 kbps - отдельное - NikaLenina & Trina_D & Shina & JAM & BalFor & Cuba77
Субтитры:
ASS - отдельные - zafhos
ASS - отдельные - Holydarkness, Stan WarHammer, Nesitach, Asca
Чаптеры: отсутствуют
Общее
Полное имя : [Leopard-Raws] Galilei Donna - 01 RAW (CX 1280x720 x264 AAC).mp4
Формат : MPEG-4
Профиль формата : Base Media
Идентификатор кодека : isom
Размер файла : 366 Мбайт
Продолжительность : 23 м.
Режим общего битрейта : Переменный
Общий поток : 2222 Кбит/сек
Дата кодирования : UTC 2013-10-10 19:39:50
Дата пометки : UTC 2013-10-10 19:39:50

Видео
Идентификатор : 1
Формат : AVC
Формат/Информация : Advanced Video Codec
Профиль формата : High@L4.1
Параметр CABAC формата : Да
Параметр ReFrames формата : 4 кадра
Идентификатор кодека : avc1
Идентификатор кодека/Информация : Advanced Video Coding
Продолжительность : 23 м.
Битрейт : 2026 Кбит/сек
Максимальный битрейт : 12,1 Мбит/сек
Ширина : 1280 пикселей
Высота : 720 пикселей
Соотношение сторон : 16:9
Режим частоты кадров : Постоянный
Частота кадров : 23,976 кадра/сек
Цветовое пространство : YUV
Субдискретизация насыщенности : 4:2:0
Битовая глубина : 8 бит
Тип развёртки : Прогрессивная
Бит/(Пиксели*Кадры) : 0.092
Размер потока : 333 Мбайт (91%)
Заголовок : 264:fps=23.976@GPAC0.5.1-DEV-rev4283
Библиотека кодирования : x264 core 129 r2245+729M 1a52e03
Настройки программы : cabac=1 / ref=4 / deblock=1:1:-1 / analyse=0x3:0x113 / me=umh / subme=9 / psy=1 / fade_compensate=0.00 / psy_rd=1.00:0.00 / mixed_ref=1 / me_range=24 / chroma_me=1 / trellis=2 / 8x8dct=1 / cqm=0 / deadzone=21,11 / fast_pskip=1 / chroma_qp_offset=-2 / threads=8 / lookahead_threads=1 / sliced_threads=0 / nr=0 / decimate=1 / interlaced=0 / bluray_compat=0 / constrained_intra=0 / fgo=0 / bframes=9 / b_pyramid=2 / b_adapt=2 / b_bias=0 / direct=1 / weightb=1 / open_gop=0 / weightp=2 / keyint=240 / keyint_min=24 / scenecut=40 / intra_refresh=0 / rc=crf / mbtree=0 / crf=19.0 / qcomp=0.72 / qpmin=0 / qpmax=69 / qpstep=4 / ip_ratio=1.40 / pb_ratio=1.30 / aq=1:0.85
Дата кодирования : UTC 2013-10-10 19:39:50
Дата пометки : UTC 2013-10-10 19:39:54
Основные цвета : BT.709
Характеристики трансфера : BT.709
Коэффициенты матрицы : BT.709

Аудио
Идентификатор : 2
Формат : AAC
Формат/Информация : Advanced Audio Codec
Профиль формата : LC
Идентификатор кодека : 40
Продолжительность : 23 м.
Вид битрейта : Переменный
Битрейт : 192 Кбит/сек
Максимальный битрейт : 222 Кбит/сек
Каналы : 2 канала
Расположение каналов : Front: L R
Частота : 48,0 КГц
Метод сжатия : С потерями
Размер потока : 31,6 Мбайт (9%)
Язык : Japanese
Дата кодирования : UTC 2013-10-10 16:56:26
Дата пометки : UTC 2013-10-10 19:39:54


Трекер:  [ 21-Окт-2013 15:57 ]

  

Скачать .torrent

Размер .torrent файла 15 KB


Размер: 725 MB
Хэш (hash) релиза: 235b01628cfdb098dcee04ce0ebdebf8c7cbc56c
Подписка на обновления:

Торренты, похожие на История трёх сестёр Galilei Donna скачать торрент

Форум Название Автор Размер S L Добавлен
Аниме | HD Rips ·· История трёх сестёр / Galilei Donna (Умэцу Ясуоми) [TV] [1 из 11] [Без хардсаба] [RUS(ext) JAP+SUB] [2013, приключения, фантастика BDRip] [1080p] Galfimbul 20595153961.92 GB 0 0 1490803521

19:05

29-Мар-17

Аниме | HD Rips ·· История трёх сестёр / Galilei Donna [TV] [11 из 11] [без хардсаба] [RUS(ext), JAP+SUB] [2013 г., приключения, фантастика, HDTVRip] [720p] Galfimbul 38414050603.58 GB 0 0 1384633812

23:30

16-Ноя-13

Аниме | HD Rips ·· История трёх сестёр / Galilei Donna [TV] [без хардсаба] [05 из 11] [JAP+SUB] & [04 из 11] [RUS(ext)] [2013 г., приключения, HDTVRip] [720p] Polarnik 18881835431.76 GB 0 0 1384115847

23:37

10-Ноя-13

Аниме | HD Rips ·· История трёх сестёр / Galilei Donna [TV] [без хардсаба] [04 из 11] [JAP+SUB] & [03 из 11] [RUS(ext)] [2013 г., приключения, HDTVRip] [720p] Polarnik 15429388971.44 GB 0 0 1383510748

23:32

3-Ноя-13

Аниме | HD Rips ·· История трёх сестёр / Galilei Donna [TV] [без хардсаба] [03 из 11] [JAP+SUB] & [02 из 11] [RUS(ext)] [2013 г., приключения, HDTVRip] [720p] Polarnik 10987673261.02 GB 0 0 1382734280

23:51

25-Окт-13

Аниме | HD Rips ·· История трёх сестёр / Galilei Donna (Умэцу Ясуоми) [TV] [1 из 11] [Без хардсаба] [JAP+SUB] [2013 г., Приключения, HDTVRip] [720p] Polarnik 383350694366 MB 0 0 1381481347

11:49

11-Окт-13

Аниме | HD Rips ·· Девы Галилея (ТВ) / Galilei Donna / Наследие Галилео / История трёх сестёр [TV] [11 из 11] [Без хардсаба] [RUS(ext), JAP, SUB] [2013, приключения, фантастика, BDRip] [1080p] Galfimbul 2309196355621.51 GB 0 0 1502434921

10:02

11-Авг-17

Аниме | HD Rips ·· История трёх сестёр / Наследие Галилео / Galilei Donna (Умэцу Ясуоми) [TV] [01-03 из 11] [Без хардсаба] [JAP+SUB] [2013 г., приключения, фантастика, меха, WEBRip] [1080p] Polarnik 16494492341.54 GB 0 0 1383143743

17:35

30-Окт-13

Еще никто не оставлял запись к записи скачать торрент История трёх сестёр Galilei Donna . Будь первым!

!Обратная связь