Скачать порно через торрент Kakushi Dere Hidden-Dovey UnionPeer.org бесплатно онлайн HD качество

Скачать новое порно 2015, 2014 новинки через торрент UnionPeer.org

Порно торрент бесплатно ЮнионПир.орг

Если у вас наблюдаются проблемы со скриншотами, переходом по ссылками, скачиванием торрентов - проблемы в блокировщике рекламы AdBlock. #хорошегоДня!


Статистика раздачи
Размер:  3.47 GB   |    Зарегистрирован:  4 года   |    .torrent скачан:  151 раз   |   
Раздают:  1  
   
Загрузка...
 
Автор Сообщение

LinGr

avatar LinGr


かくしデレ | Kakushi Dere | Hidden-Dovey | KakuDere | Хитрая девчонка
Год выпуска: 2013
Страна: Япония
Жанр: big tits, oral sex, straight, titsjob, x-ray
Продолжительность: >2 эп. по 30 мин.
Субтитры: Отсутствуют
Цензура: Присутствует
Студия: Pashmina
Описание:
Based on the erotic manga.
Информационные ссылки: AniDB || MAL || World Art || ХентайМаг
Исходник: DVD-5
Видео: MPEG2 | NTSC | 16x9 | 720x480 | 8000 Kbps
Аудио JAP: AC-3 | 48000Hz | 128 Kbps | 2ch
01. Volume 1
02. Volume 2
General
Complete name : L:\VIDEO_TS\VTS_01_1.VOB
Format : MPEG-PS
File size : 1 024 MiB
Duration : 20mn 29s
Overall bit rate mode : Variable
Overall bit rate : 6 984 Kbps
Writing library : encoded by TMPGEnc Video Mastering Works 5 Version. 5.3.1.85

Video
ID : 224 (0xE0)
Format : MPEG Video
Format version : Version 2
Format profile : Main@Main
Format settings, BVOP : Yes
Format settings, Matrix : Custom
Duration : 20mn 29s
Bit rate mode : Variable
Bit rate : 6 717 Kbps
Maximum bit rate : 8 000 Kbps
Width : 720 pixels
Height : 480 pixels
Display aspect ratio : 16:9
Frame rate : 29.970 fps
Standard : NTSC
Color space : YUV
Chroma subsampling : 4:2:0
Bit depth : 8 bits
Scan type : Interlaced
Scan order : Top Field First
Compression mode : Lossy
Bits/(Pixel*Frame) : 0.649
Stream size : 985 MiB (96%)
Writing library : TMPGEnc Video Mastering Works 5 Version. 5.3.1.85
Color primaries : SMPTE 170M
Transfer characteristics : SMPTE 170M
Matrix coefficients : SMPTE 170M

Audio
ID : 189 (0xBD)-128 (0x80)
Format : AC-3
Format/Info : Audio Coding 3
Mode extension : CM (complete main)
Muxing mode : DVD-Video
Duration : 20mn 29s
Bit rate mode : Constant
Bit rate : 128 Kbps
Channel(s) : 2 channels
Channel positions : Front: L R
Sampling rate : 48.0 KHz
Bit depth : 16 bits
Compression mode : Lossy
Stream size : 18.8 MiB (2%)


Исходник: DVD-5
Видео: MPEG2 | NTSC | 16x9 | 720x480 | 9000 Kbps
Аудио JAP: AC-3 | 48000Hz | 192 Kbps | 2ch
General
Complete name : L:\VIDEO_TS\VTS_01_1.VOB
Format : MPEG-PS
File size : 1 024 MiB
Duration : 7mn 45s
Overall bit rate : 18.4 Mbps

Video
ID : 224 (0xE0)
Format : MPEG Video
Format version : Version 2
Format profile : Main@Main
Format settings, BVOP : Yes
Format settings, Matrix : Custom
Format settings, GOP : M=3, N=15
Duration : 7mn 45s
Bit rate : 17.9 Mbps
Maximum bit rate : 9 000 Kbps
Width : 720 pixels
Height : 480 pixels
Display aspect ratio : 16:9
Frame rate : 29.970 fps
Standard : NTSC
Color space : YUV
Chroma subsampling : 4:2:0
Bit depth : 8 bits
Scan type : Interlaced
Scan order : Top Field First
Compression mode : Lossy
Bits/(Pixel*Frame) : 1.727
Stream size : 993 MiB (97%)

Audio
ID : 189 (0xBD)-128 (0x80)
Format : AC-3
Format/Info : Audio Coding 3
Mode extension : CM (complete main)
Muxing mode : DVD-Video
Duration : 7mn 45s
Bit rate mode : Constant
Bit rate : 192 Kbps
Channel(s) : 2 channels
Channel positions : Front: L R
Sampling rate : 48.0 KHz
Bit depth : 16 bits
Compression mode : Lossy
Delay relative to video : -66ms
Stream size : 10.7 MiB (1%)


Трекер:  [ 16-Окт-2013 18:33 ]

  

Скачать .torrent

Размер .torrent файла 18 KB


Размер: 3.47 GB
Хэш (hash) релиза: fb4af81d1551f42ffc80323f60b0355489140714

Торренты, похожие на Kakushi Dere Hidden-Dovey скачать торрент

Форум Название Автор Размер S L Добавлен
Хентай, порно и эротические мультфильмы ·· Kakushi Dere / Hidden-Dovey / KakuDere / Хитрая девчонка (Ooyama Takashi / Pashmina) (ep. 1-3 of 3 + bonus) [cen] [2013 г., Big tits, Oral sex, Straight, Titsjob, X-Ray, DVD5] [jap] Galfimbul 49187964014.58 GB 0 0 1406108101

12:35

23-Июл-14

bot

Топик был перенесен в форум Хентай | С цензурой

Перенес LinGr

Хотите добавить комментарий к записи скачать торрент Kakushi Dere Hidden-Dovey

!Обратная связь