Скачать через торрент Вишневый Квартет Yozakura Quartet: Hana no Uta бесплатно Аниме Все серии на русском torrent

Если у вас наблюдаются проблемы со скриншотами, переходом по ссылками, скачиванием торрентов - проблемы в блокировщике рекламы AdBlock. #хорошегоДня!


Статистика раздачи
Размер:  560 MB   |    Зарегистрирован:  3 года 10 месяцев   |    .torrent скачан:  12 раз   |   
Раздают:  1  
   
Загрузка...
 
Автор Сообщение

Polarnik

avatar Polarnik


Yozakura Quartet: Hana no Uta / Вишневый Квартет
Страна: Япония
Год выпуска: 2013 г.
Жанр: Приключения, комедия, мистика
Продолжительность: 25 мин
Перевод: Lulu
Редактура: Harushecka (Харушечка)
Лирика: Nika_Elrik (Ника Элрик) - OP & Lulu - ED
Оформление: Helge (Хельге)

Режиссер: Сава Рёсукэ

Студия:

Описание: В городе Сакурасин, похожем на обычный современный город, люди и ёкаи живут бок о бок в мире и согласии. Тэнгу, уни, кёси (зомби), заклинатели и многие другие создания, приняв человеческий облик, ходят на работу, учатся и отдыхают, не боясь, что их обидят. Разумеется, они сами не должны причинять вред другим, иначе будут наказаны. За порядком следит команда, возглавляемая Акина из семьи Хиидзуми – только он способен произвести «Настройку», то есть, отослать в потусторонний мир души тех ёкаев, которые утратили контроль над собой и стали опасны.
Акина, шеф Офиса Консультации Жизни Ёкай, не слишком рад, что именно он унаследовал дар «Настройки», ведь большая часть его друзей и коллег – не люди. Но иначе город перестанет быть убежищем для ёкай.
Эта мистическая история состоит не только из поединков с применением сверхъестественных способностей. Даже юные защитники города предпочитает бездельничать в офисе и заниматься обычными делами, чего уж говорить обо всех остальных жителях Сакурасина! Однако некоторым ёкай покоя не даёт тот факт, что извечные враги сумели примириться…

Равка: Leopard-Raws
Качество: HDTVRip
Формат видео: mp4
Видео: AVC, 8 bits, 1280x720; 23.976 fps; 1404 Kbps, (16:9)
Аудио:
1. JP - AAC, 48.0 KHz, 192 kbps, 2 ch
01.
General
Complete name : Q:\Yozakura Quartet - Hana no Uta [Leopard-Raws]\[Leopard-Raws] Yozakura Quartet - Hana no Uta - 01 RAW (MX 1280x720 x264 AAC).mp4
Format : MPEG-4
Format profile : Base Media
Codec ID : isom
File size : 275 MiB
Duration : 24mn 0s
Overall bit rate mode : Variable
Overall bit rate : 1 599 Kbps
Encoded date : UTC 2013-10-06 20:09:52
Tagged date : UTC 2013-10-06 20:09:52

Video
ID : 1
Format : AVC
Format/Info : Advanced Video Codec
Format profile : High@L4.1
Format settings, CABAC : Yes
Format settings, ReFrames : 4 frames
Codec ID : avc1
Codec ID/Info : Advanced Video Coding
Duration : 23mn 59s
Bit rate : 1 404 Kbps
Maximum bit rate : 15.6 Mbps
Width : 1 280 pixels
Height : 720 pixels
Display aspect ratio : 16:9
Frame rate mode : Constant
Frame rate : 23.976 fps
Color space : YUV
Chroma subsampling : 4:2:0
Bit depth : 8 bits
Scan type : Progressive
Bits/(Pixel*Frame) : 0.064
Stream size : 241 MiB (88%)
Title : 264:fps=23.976@GPAC0.5.1-DEV-rev4283
Writing library : x264 core 129 r2245+729M 1a52e03
Encoding settings : cabac=1 / ref=4 / deblock=1:1:-1 / analyse=0x3:0x113 / me=umh / subme=9 / psy=1 / fade_compensate=0.00 / psy_rd=1.00:0.00 / mixed_ref=1 / me_range=24 / chroma_me=1 / trellis=2 / 8x8dct=1 / cqm=0 / deadzone=21,11 / fast_pskip=1 / chroma_qp_offset=-2 / threads=8 / lookahead_threads=1 / sliced_threads=0 / nr=0 / decimate=1 / interlaced=0 / bluray_compat=0 / constrained_intra=0 / fgo=0 / bframes=9 / b_pyramid=2 / b_adapt=2 / b_bias=0 / direct=1 / weightb=1 / open_gop=0 / weightp=2 / keyint=240 / keyint_min=24 / scenecut=40 / intra_refresh=0 / rc=crf / mbtree=0 / crf=19.0 / qcomp=0.72 / qpmin=0 / qpmax=69 / qpstep=4 / ip_ratio=1.40 / pb_ratio=1.30 / aq=1:0.85
Encoded date : UTC 2013-10-06 20:09:52
Tagged date : UTC 2013-10-06 20:09:55
Color primaries : BT.709
Transfer characteristics : BT.709
Matrix coefficients : BT.709

Audio
ID : 2
Format : AAC
Format/Info : Advanced Audio Codec
Format profile : LC
Codec ID : 40
Duration : 24mn 0s
Bit rate mode : Variable
Bit rate : 192 Kbps
Maximum bit rate : 237 Kbps
Channel(s) : 2 channels
Channel positions : Front: L R
Sampling rate : 48.0 KHz
Compression mode : Lossy
Stream size : 32.8 MiB (12%)
Language : Japanese
Encoded date : UTC 2013-10-06 17:52:17
Tagged date : UTC 2013-10-06 20:09:55


Трекер:  [ 21-Окт-2013 16:04 ]

  

Скачать .torrent

Размер .torrent файла 12 KB


Размер: 560 MB
Хэш (hash) релиза: efd1dabd3eb7591b74bb222e534b4613da2571d8
Подписка на обновления:

Торренты, похожие на Вишневый Квартет Yozakura Quartet: Hana no Uta скачать торрент

Форум Название Автор Размер S L Добавлен
Аниме | HD Rips ·· Вишневый Квартет / Yozakura Quartet Hana no Uta [Special] [6 из 6] [Без хардсаба] [JAP, SUB] [2013 г., Приключения, Мистика, Комедия, BDRip] [1080p] Galfimbul 207566916198 MB 0 0 1473565906

06:51

11-Сен-16

Аниме | HD Rips ·· Вишневый Квартет / Yozakura Quartet Hana no Uta [Special] [01-05 из 06] [Без хардсаба] [JAP, SUB] [2013 г., Приключения, Мистика, Комедия, BDRip] [1080p] Galfimbul 173485619165 MB 0 0 1473391630

06:27

9-Сен-16

Аниме | HD Rips ·· Вишневый Квартет / Yozakura Quartet Hana no Uta [Special] [01-04 из 06] [Без хардсаба] [JAP, SUB] [2013 г., Приключения, Мистика, Комедия, BDRip] [1080p] Galfimbul 141324515135 MB 0 0 1465105059

08:37

5-Июн-16

Аниме | HD Rips ·· Вишневый Квартет / Yozakura Quartet Hana no Uta [Special] [01-03 из 06] [Без хардсаба] [JAP, SUB] [2013 г., Приключения, Мистика, Комедия, BDRip] [1080p] Galfimbul 10092620296 MB 0 0 1457326955

08:02

7-Мар-16

Аниме | Rips ·· Вишневый Квартет (ТВ-2) / Yozakura Quartet: Hana no Uta (Сава Рёсукэ) [TV+Special] [без хардсаба] [13+6 из 13+6] [JAP+SUB] & [13+0 из 13+6] [RUS(ext)] [2013 г., приключения, мистика, BDRip] [1080p] Galfimbul 1421592737913.24 GB 0 0 1473514349

16:32

10-Сен-16

Аниме | Rips ·· Вишневый Квартет (ТВ-2) / Yozakura Quartet: Hana no Uta (Сава Рёсукэ) [TV+Special] [без хардсаба] [13+4 из 13+6] [JAP+SUB] & [13+0 из 13+6] [RUS(ext)] [2013 г., приключения, мистика, BDRip] [1080p] Galfimbul 1414968497813.18 GB 0 0 1471373920

21:58

16-Авг-16

Аниме | HD Rips ·· Вишневый Квартет (ТВ-2) / Yozakura Quartet: Hana no Uta [TV] [04 из 12] [без хардсаба] [RUS(int), JAP+SUB] [2013 г., приключения, мистика, HDTVRip] [720p] Polarnik 13121887631.22 GB 0 0 1383510750

23:32

3-Ноя-13

Аниме | HD Rips ·· Yozakura Quartet: Hana no Uta / Вишневый Квартет (Сава Рёсукэ) [01 из 12] [Без хардсаба] [JAP+SUB] [2013 г., приключения, HDTVRip] [720p] Polarnik 288030772275 MB 0 0 1381308588

11:49

9-Окт-13

Еще никто не оставлял запись к записи скачать торрент Вишневый Квартет Yozakura Quartet: Hana no Uta . Будь первым!

!Обратная связь