Скачать порно через торрент Mesu Saga: Persona Съёмочная группа UnionPeer.org бесплатно онлайн HD качество

Скачать новое порно 2015, 2014 новинки через торрент UnionPeer.org

Порно торрент бесплатно ЮнионПир.орг

Если у вас наблюдаются проблемы со скриншотами, переходом по ссылками, скачиванием торрентов - проблемы в блокировщике рекламы AdBlock. #хорошегоДня!


Статистика раздачи
Размер:  1.47 GB   |    Зарегистрирован:  3 года 10 месяцев   |    .torrent скачан:  232 раза   |   
Раздают:  1  
   
Загрузка...
 
Автор Сообщение

LinGr

avatar LinGr


Mesu Saga: Persona / 牝性 -ペルソナ- / Съёмочная группа
Год производства: 2013 г.
Жанр: Big tits, Group sex, Oral sex, Netorare
Серии: ep. 1
Продолжительность: 1х~24 min + 5 min трейлеры
Цензура: Есть

Озвучка: Японская (Оригинальная)

Режиссер: Aoi Yuuno
Автор оригинала: Linda
Студия: MS Pictures, BOOTLEG

Описание RUS: История про девушку, которая не так давно вышла замуж. Шло время. Муженёк постепенно охладел к своей жёнушке, которой хотелось разнообразия в половой жизни и больше секса. И вот, наша героиня знакомится с парнями и они ей обещают, что жизнь её круто изменится после их знакомства.

Описание ENG: The story about a girl who has recently got married. As time went on. Hubby gradually lost interest in his wife, who wanted diversity in sex and more sex. And so, our heroine meets with the guys and they promise to her that her life was abruptly changed after they met.

Информационные ссылки: AniDB - MAL - ХентайМаг

Качество видео: DVD5
Формат видео: DVD Video
Видео кодек: MPEG2
Аудио кодек: AC3
Видео: 720х480, (16:9), 29,970 кадров/сек, ~ 6753 Кбит/сек, NTSC
Аудио: JAP, AC-3, 2 канала, 128 Кбит/сек, 48,0 КГц
Общее
Полное имя : J:\VIDEO_TS\VTS_01_1.VOB
Формат : MPEG-PS
Размер файла : 1024 Мбайт
Продолжительность : 20 м.
Режим общего битрейта : Переменный
Общий поток : 7021 Кбит/сек
Библиотека кодирования : encoded by TMPGEnc Video Mastering Works 5 Version. 5.3.4.96

Видео
Идентификатор : 224 (0xE0)
Формат : MPEG Video
Версия формата : Version 2
Профиль формата : Main@Main
Параметр BVOP формата : Да
Параметр матрицы формата : Выборочная
Параметр GOP формата : Variable
Продолжительность : 20 м.
Вид битрейта : Переменный
Битрейт : 6753 Кбит/сек
Максимальный битрейт : 8000 Кбит/сек
Ширина : 720 пикселей
Высота : 480 пикселей
Соотношение сторон : 16:9
Частота кадров : 29,970 кадров/сек
Стандарт вещания : NTSC
Цветовое пространство : YUV
Субдискретизация насыщенности : 4:2:0
Битовая глубина : 8 бит
Тип развёртки : Чересстрочная
Порядок развёртки : Верхнее поле первое
Метод сжатия : С потерями
Бит/(Пиксели*Кадры) : 0.652
Временной код первого кадра : 00:00:00:00
Оригинал временного кода : Group of pictures header
Размер потока : 985 Мбайт (96%)
Библиотека кодирования : TMPGEnc Video Mastering Works 5 Version. 5.3.4.96
Основные цвета : BT.601 NTSC
Характеристики трансфера : BT.601
Коэффициенты матрицы : BT.601

Аудио
Идентификатор : 189 (0xBD)-128 (0x80)
Формат : AC-3
Формат/Информация : Audio Coding 3
Расширение режима : CM (complete main)
Параметр Endianness формата : Big
Режим смешивания : DVD-Video
Продолжительность : 20 м.
Вид битрейта : Постоянный
Битрейт : 128 Кбит/сек
Каналы : 2 канала
Расположение каналов : Front: L R
Частота : 48,0 КГц
Битовая глубина : 16 бит
Метод сжатия : С потерями
Размер потока : 18,7 Мбайт (2%)

Меню


Трекер:  [ 15-Окт-2013 18:01 ]

  

Скачать .torrent

Размер .torrent файла 15 KB


Размер: 1.47 GB
Хэш (hash) релиза: 116e4c2e42b0c452225f2b80687ff1c9d5da7b8d

bot

Топик был перенесен в форум Хентай | С цензурой

Перенес LinGr

Хотите добавить комментарий к записи скачать торрент Mesu Saga: Persona Съёмочная группа

!Обратная связь