Скачать через торрент музыку Пришельцы Les visiteurs бесплатно без регистрации torrent

Если у вас наблюдаются проблемы со скриншотами, переходом по ссылками, скачиванием торрентов - проблемы в блокировщике рекламы AdBlock. #хорошегоДня!


Статистика раздачи
Размер:  503 MB   |    Зарегистрирован:  3 года 9 месяцев   |    .torrent скачан:  35 раз   |   
Раздают:  1  
   
Загрузка...
 
Автор Сообщение

Galfimbul

avatar Galfimbul



Пришельцы / Les visiteurs
Composed and Conducted by Georges Delerue
Limited Edition of 750 Units

Жанр: Score | Дата выпуска: 30 сентября 2013
Издатель (лейбл): Music Box Records | Номер по каталогу: MBR-034
Аудиокодек: FLAC | Тип рипа: image+.cue | Битрейт аудио: lossless
Общая продолжительность: 55:36
Источник: Рип оригинального диска из личной коллекции
Les visiteurs (1980)
01. Les visiteurs
02. Reka, le dernier survivant
03. Arkim et Tolrach
04. Les jeunes mariés
05. Antonia
06. Zarko, chevalier de l''espace
07. Le procès
08. Le tour du monde
09. Jalousie
10. L''expérience
11. Soirée au château
12. La vie sur Terre
13. Retour à Paris
14. Renate et Jean-Louis
15. La prison de San Diego
16. La révélation

L''homme qui revient de loin (1972)
17. Générique début
18. Marthe et André
19. La Roseraie
20. Jacques et Fanny
21. Au bord de l''étang
22. Le fantôme
23. L''enquête
24. Dénouement
25. Générique fin
Exact Audio Copy V1.0 beta 3 from 29. August 2011

EAC extraction logfile from 14. October 2013, 10:47

Georges Delerue / Les visiteurs - L''homme qui revient de loin

Used drive : TSSTcorpCDDVDW TS-L633C Adapter: 2 ID: 0

Read mode : SecureUtilize accurate stream : YesDefeat audio cache : YesMake use of C2 pointers : No

Read offset correction : 6Overread into Lead-In and Lead-Out : NoFill up missing offset samples with silence : YesDelete leading and trailing silent blocks : NoNull samples used in CRC calculations : YesUsed interface : Native Win32 interface for Win NT & 2000

Used output format : Internal WAV RoutinesSample format : 44.100 Hz; 16 Bit; Stereo

TOC of the extracted CD

Track | Start | Length | Start sector | End sector --------------------------------------------------------- 1 | 0:00.00 | 2:29.17 | 0 | 11191 2 | 2:29.17 | 1:54.54 | 11192 | 19795 3 | 4:23.71 | 1:42.64 | 19796 | 27509 4 | 6:06.60 | 1:57.15 | 27510 | 36299 5 | 8:04.00 | 1:13.53 | 36300 | 41827 6 | 9:17.53 | 2:31.05 | 41828 | 53157 7 | 11:48.58 | 2:04.56 | 53158 | 62513 8 | 13:53.39 | 2:43.46 | 62514 | 74784 9 | 16:37.10 | 1:27.39 | 74785 | 81348 10 | 18:04.49 | 2:44.07 | 81349 | 93655 11 | 20:48.56 | 3:25.64 | 93656 | 109094 12 | 24:14.45 | 1:46.73 | 109095 | 117117 13 | 26:01.43 | 2:24.28 | 117118 | 127945 14 | 28:25.71 | 2:48.62 | 127946 | 140607 15 | 31:14.58 | 3:32.59 | 140608 | 156566 16 | 34:47.42 | 2:26.35 | 156567 | 167551 17 | 37:14.02 | 1:13.62 | 167552 | 173088 18 | 38:27.64 | 1:49.34 | 173089 | 181297 19 | 40:17.23 | 2:06.44 | 181298 | 190791 20 | 42:23.67 | 2:18.55 | 190792 | 201196 21 | 44:42.47 | 1:59.45 | 201197 | 210166 22 | 46:42.17 | 3:00.46 | 210167 | 223712 23 | 49:42.63 | 1:50.18 | 223713 | 231980 24 | 51:33.06 | 1:56.51 | 231981 | 240731 25 | 53:29.57 | 2:06.38 | 240732 | 250219

Range status and errors

Selected range

Filename D:\Georges Delerue - Les visiteurs - L''homme qui revient de loin (MBR-034).wav

Peak level 97.2 % Extraction speed 3.5 X Range quality 99.9 % Test CRC 89669C9C Copy CRC 89669C9C Copy OK

No errors occurred

AccurateRip summary

Track 1 not present in databaseTrack 2 not present in databaseTrack 3 not present in databaseTrack 4 not present in databaseTrack 5 not present in databaseTrack 6 not present in databaseTrack 7 not present in databaseTrack 8 not present in databaseTrack 9 not present in databaseTrack 10 not present in databaseTrack 11 not present in databaseTrack 12 not present in databaseTrack 13 not present in databaseTrack 14 not present in databaseTrack 15 not present in databaseTrack 16 not present in databaseTrack 17 not present in databaseTrack 18 not present in databaseTrack 19 not present in databaseTrack 20 not present in databaseTrack 21 not present in databaseTrack 22 not present in databaseTrack 23 not present in databaseTrack 24 not present in databaseTrack 25 not present in database

None of the tracks are present in the AccurateRip database

End of status report

---- CUETools DB Plugin V2.1.4

[CTDB TOCID: dZUWhDSysTb6QaRzJoc_NZcy8Eg-] foundSubmit result: dZUWhDSysTb6QaRzJoc_NZcy8Eg- has been confirmedTrack | CTDB Status 1 | (2/2) Accurately ripped 2 | (2/2) Accurately ripped 3 | (2/2) Accurately ripped 4 | (2/2) Accurately ripped 5 | (2/2) Accurately ripped 6 | (2/2) Accurately ripped 7 | (2/2) Accurately ripped 8 | (2/2) Accurately ripped 9 | (2/2) Accurately ripped 10 | (2/2) Accurately ripped 11 | (2/2) Accurately ripped 12 | (2/2) Accurately ripped 13 | (2/2) Accurately ripped 14 | (2/2) Accurately ripped 15 | (2/2) Accurately ripped 16 | (2/2) Accurately ripped 17 | (2/2) Accurately ripped 18 | (2/2) Accurately ripped 19 | (2/2) Accurately ripped 20 | (2/2) Accurately ripped 21 | (2/2) Accurately ripped 22 | (2/2) Accurately ripped 23 | (2/2) Accurately ripped 24 | (2/2) Accurately ripped 25 | (2/2) Accurately ripped

==== Log checksum DBBC696218FABF624CB93EDDF12F7E762C5E0CB07274C260A4E819AE3FF8186B ====
REM GENRE SoundtrackREM DATE 2013REM DISCID 7A0D0819REM COMMENT ExactAudioCopy v1.0b3PERFORMER "Georges Delerue"TITLE "Les visiteurs - L''homme qui revient de loin"FILE "Georges Delerue - Les visiteurs - L''homme qui revient de loin (MBR-034).flac" WAVE TRACK 01 AUDIO TITLE "Les visiteurs" INDEX 01 00:00:00 TRACK 02 AUDIO TITLE "Reka, le dernier survivant" INDEX 00 02:27:17 INDEX 01 02:29:17 TRACK 03 AUDIO TITLE "Arkim et Tolrach" INDEX 00 04:21:71 INDEX 01 04:23:71 TRACK 04 AUDIO TITLE "Les jeunes maries" INDEX 00 06:04:60 INDEX 01 06:06:60 TRACK 05 AUDIO TITLE "Antonia" INDEX 00 08:02:00 INDEX 01 08:04:00 TRACK 06 AUDIO TITLE "Zarko, chevalier de l''espace" INDEX 00 09:15:53 INDEX 01 09:17:53 TRACK 07 AUDIO TITLE "Le proces" INDEX 00 11:46:58 INDEX 01 11:48:58 TRACK 08 AUDIO TITLE "Le tour du monde" INDEX 00 13:51:39 INDEX 01 13:53:39 TRACK 09 AUDIO TITLE "Jalousie" INDEX 00 16:35:10 INDEX 01 16:37:10 TRACK 10 AUDIO TITLE "L''experience" INDEX 00 18:02:49 INDEX 01 18:04:49 TRACK 11 AUDIO TITLE "Soiree au chateau" INDEX 00 20:46:56 INDEX 01 20:48:56 TRACK 12 AUDIO TITLE "La vie sur Terre" INDEX 00 24:12:45 INDEX 01 24:14:45 TRACK 13 AUDIO TITLE "Retour a Paris" INDEX 00 25:59:43 INDEX 01 26:01:43 TRACK 14 AUDIO TITLE "Renate et Jean-Louis" INDEX 00 28:23:71 INDEX 01 28:25:71 TRACK 15 AUDIO TITLE "La prison de San Diego" INDEX 00 31:13:58 INDEX 01 31:14:58 TRACK 16 AUDIO TITLE "La revelation" INDEX 00 34:45:42 INDEX 01 34:47:42 TRACK 17 AUDIO TITLE "Generique debut" INDEX 00 37:11:02 INDEX 01 37:14:02 TRACK 18 AUDIO TITLE "Marthe et Andre" INDEX 00 38:25:64 INDEX 01 38:27:64 TRACK 19 AUDIO TITLE "La Roseraie" INDEX 00 40:15:23 INDEX 01 40:17:23 TRACK 20 AUDIO TITLE "Jacques et Fanny" INDEX 00 42:21:67 INDEX 01 42:23:67 TRACK 21 AUDIO TITLE "Au bord de l''etang" INDEX 00 44:40:47 INDEX 01 44:42:47 TRACK 22 AUDIO TITLE "Le fantome" INDEX 00 46:40:17 INDEX 01 46:42:17 TRACK 23 AUDIO TITLE "L''enquete" INDEX 00 49:40:63 INDEX 01 49:42:63 TRACK 24 AUDIO TITLE "Denouement" INDEX 00 51:31:06 INDEX 01 51:33:06 TRACK 25 AUDIO TITLE "Generique fin" INDEX 00 53:27:57 INDEX 01 53:29:57


Трекер:  [ 14-Дек-2013 21:44 ]

  

Скачать .torrent

Размер .torrent файла 21 KB


Размер: 503 MB
Хэш (hash) релиза: e600e0dc49f48db4b59732a53462bb737c9f4982

Торренты, похожие на Пришельцы Les visiteurs скачать торрент

Форум Название Автор Размер S L Добавлен
Саундтреки к фильмам и мультфильмам (mp3) ·· (Score) Пришельцы / Les visiteurs (by Eric Levi) - 1993, MP3 (tracks) 320 kbps Galfimbul 125171078119 MB 0 0 1421441730

23:55

16-Янв-15

Саундтреки к фильмам и мультфильмам (lossless) ·· (Score) Пришельцы / Les visiteurs (by Eric Levi) - 1993, FLAC (tracks+.cue), lossless Galfimbul 263344505251 MB 0 0 1421438298

22:58

16-Янв-15

Саундтреки к фильмам и мультфильмам (mp3) ·· (Score) Пришельцы 2: Коридоры времени / Les couloirs du temps: Les visiteurs II (by Eric Levi) - 1998, MP3 (tracks) 320 kbps Galfimbul 120109382115 MB 0 0 1421504818

17:26

17-Янв-15

Саундтреки к фильмам и мультфильмам (lossless) ·· (Score) Пришельцы 2: Коридоры времени / Les couloirs du temps: Les visiteurs II (by Eric Levi) - 1998, FLAC (tracks+.cue), lossless Galfimbul 215435329205 MB 0 0 1421500849

16:20

17-Янв-15

Саундтреки к фильмам и мультфильмам (lossless) ·· (Score) Пришельцы 3: Взятие Бастилии / Les Visiteurs: La Revolution (by Eric Levi) - 2016, FLAC (tracks+.cue), lossless Galfimbul 214253507204 MB 0 0 1463226390

14:46

14-Май-16

Саундтреки к фильмам и мультфильмам (mp3) ·· (Score) Пришельцы 3: Взятие Бастилии / Les Visiteurs: La Revolution (by Eric Levi) - 2016, MP3 (tracks) 320 kbps Galfimbul 9127416787 MB 0 0 1460821956

18:52

16-Апр-16

Саундтреки к фильмам и мультфильмам (lossless) ·· (Score) Пришельцы 3: Взятие Бастилии / Les Visiteurs: La Revolution (by Eric Levi) - 2016, FLAC (tracks+.cue), lossless Galfimbul 192403602183 MB 0 0 1460819683

18:14

16-Апр-16

bot

Топик был перенесен в форум Саундтреки к фильмам и мультфильмам (lossless)

Перенес Galfimbul

Хотите добавить комментарий к записи скачать торрент Пришельцы Les visiteurs

!Обратная связь