Performers of the Year 2012 2012 UnionPeer.org HD

2015, 2014 UnionPeer.org

.

, , - AdBlock. #!


38.38 GB   |    :  4 1    |    .torrent :  121    |   
1  
   
...
 

LinGr

avatar LinGr


Performers Of The Year 2012 2012

: 2011 .
: United States
: All Sex, Anal, Gonzo, Hardcore
: 04:26:14 (03:14:53 + 01:11:21)

: William H. Nutsack (as William H.)
: Elegant Angel

:

:
Asa Akira, Bobbi Starr, Gracie Glam, Jayden Jaymes, Kagney Linn Karter, Kristina Rose & Lexi Belle. James Deen, Jordan Ash, Manuel Ferrara & Michael Stefano

:
Adult entertainment studio, Elegant Angel Productions, is proud to announce the latest volume of its annual series,
"Performers Of The Year 2012," scheduled for release on January 11th.
The movie will be a 2-Disc Set, featuring 7 scenes, and starring the biggest names of the year:
Asa Akira, Kagney Linn Karter, Kristina Rose, Gracie Glam, Lexi Belle, Jayden Jaymes, and Bobbi Starr.

:
. :
* Interactive Menus
* Chapter Selection
* Making Of Featurette
* Web Site Information

* Bonus Scenes (Four bonus scenes on the second disc from movies like Battle of the Asses 2 (Kelly Divine, Ava Rose, & Michael Stefano) 39:09 minutes, The Bombshells (Andy San Dimas & Anthony Rosano) 28:18 minutes, Sex Appeal (Jynx Maze, Mick Blue & Toni Ribas) 44:36 minutes, and Battle of the Asses 3 (Jada Stevens & Mick Blue) 33:28 minutes.)

HD : 1080p
: Blu-Ray
: Blu-Ray Video
: BDMV
: H.264/AVC
: AC3
: VC-1 Video / ~12530 Mbps (DISC1) | ~11000 Mbps (DISC2) / 1080p / 23,976 fps / 16:9
: Dolby Digital Audio 2.0 / 48000 Hz / 256 kbps

PERFORMERS_OF_THE_YEAR_2012_D1
Disc Title: PERFORMERS_OF_THE_YEAR_2012_D1
Disc Size: 19714755745 bytes
Protection: AACS
BD-Java: No
BDInfo: 0.5.8

********************
PLAYLIST: 00001.MPLS
********************

<--- BEGIN FORUMS PASTE --->
Total Video
Title Codec Length Movie Size Disc Size Bitrate Bitrate Main Audio Track Secondary Audio Track
----- ------ ------- -------------- -------------- ------- ------- ------------------ ---------------------
00001.MPLS VC-1 3:14:53 19643698368 19714755745 13,44 12,53 DD AC3 2.0 256Kbps
DISC INFO:

Disc Title: PERFORMERS_OF_THE_YEAR_2012_D1
Disc Size: 19714755745 bytes
Protection: AACS
BD-Java: No
BDInfo: 0.5.8

PLAYLIST REPORT:

Name: 00001.MPLS
Length: 3:14:53.848 (h:m:s.ms)
Size: 19643698368 bytes
Total Bitrate: 13,44 Mbps

VIDEO:

Codec Bitrate Description
----- ------- -----------
VC-1 Video 12532 kbps 1080p / 23,976 fps / 16:9 / Advanced Profile 3

AUDIO:

Codec Language Bitrate Description
----- -------- ------- -----------
Dolby Digital Audio English 256 kbps 2.0 / 48 kHz / 256 kbps / DN -4dB

FILES:

Name Time In Length Size Total Bitrate
---- ------- ------ ---- -------------
00000.M2TS 0:00:00.000 3:14:52.847 19643667648 13440
00014.M2TS 3:14:52.847 0:00:01.000 30720 246

CHAPTERS:

Number Time In Length Avg Video Rate Max 1-Sec Rate Max 1-Sec Time Max 5-Sec Rate Max 5-Sec Time Max 10Sec Rate Max 10Sec Time Avg Frame Size Max Frame Size Max Frame Time
------ ------- ------ -------------- -------------- -------------- -------------- -------------- -------------- -------------- -------------- -------------- --------------
1 0:00:00.000 0:09:59.557 11213 kbps 33374 kbps 00:03:45.183 24024 kbps 00:07:33.369 20629 kbps 00:03:45.099 58704 bytes 428548 bytes 00:03:45.224
2 0:09:59.557 0:04:53.459 11158 kbps 17903 kbps 00:14:11.392 16391 kbps 00:14:08.681 15125 kbps 00:14:04.134 58320 bytes 262656 bytes 00:10:50.608
3 0:14:53.017 0:04:08.998 12523 kbps 18264 kbps 00:18:46.125 17117 kbps 00:18:44.665 16541 kbps 00:18:37.449 65533 bytes 212484 bytes 00:15:03.861
4 0:19:02.015 0:04:10.917 13650 kbps 17269 kbps 00:20:07.623 16364 kbps 00:19:20.909 15757 kbps 00:19:19.491 71162 bytes 231866 bytes 00:19:17.114
5 0:23:12.933 0:03:02.390 14203 kbps 18592 kbps 00:24:13.326 17551 kbps 00:24:12.451 16732 kbps 00:24:12.450 74049 bytes 236304 bytes 00:25:48.129
6 0:26:15.323 0:04:39.362 14323 kbps 17824 kbps 00:27:30.273 16696 kbps 00:27:40.367 16506 kbps 00:27:37.030 74673 bytes 219916 bytes 00:29:23.344
7 0:30:54.686 0:03:53.441 12685 kbps 16327 kbps 00:32:49.759 15321 kbps 00:32:49.425 14696 kbps 00:32:48.299 66134 bytes 200423 bytes 00:34:42.830
8 0:34:48.127 0:05:00.341 14018 kbps 17036 kbps 00:39:07.136 16552 kbps 00:39:09.221 16398 kbps 00:39:05.718 73082 bytes 205185 bytes 00:38:50.077
9 0:39:48.469 0:03:48.937 13099 kbps 16061 kbps 00:39:48.844 15094 kbps 00:39:54.016 15008 kbps 00:39:48.844 68291 bytes 191629 bytes 00:40:10.157
10 0:43:37.406 0:04:07.830 13257 kbps 16841 kbps 00:47:33.725 15632 kbps 00:47:17.709 15048 kbps 00:47:30.931 69115 bytes 204573 bytes 00:45:31.729
11 0:47:45.237 0:01:42.310 12377 kbps 16181 kbps 00:48:01.837 14854 kbps 00:47:45.404 13943 kbps 00:47:45.237 64526 bytes 194429 bytes 00:47:59.877
12 0:49:27.547 0:04:28.351 13549 kbps 18691 kbps 00:49:44.356 15977 kbps 00:49:42.771 15434 kbps 00:49:42.771 70638 bytes 184697 bytes 00:52:19.302
13 0:53:55.899 0:03:06.436 11944 kbps 15568 kbps 00:54:35.772 14716 kbps 00:54:35.730 14150 kbps 00:54:07.244 62609 bytes 208479 bytes 00:56:48.571
14 0:57:02.335 0:04:23.096 14733 kbps 30467 kbps 00:57:41.583 25799 kbps 00:57:41.583 23928 kbps 00:57:41.207 76859 bytes 362177 bytes 00:57:43.543
15 1:01:25.431 0:03:26.206 18313 kbps 36730 kbps 01:02:06.681 27367 kbps 01:02:03.803 23682 kbps 01:02:02.760 95632 bytes 467777 bytes 01:02:06.723
16 1:04:51.637 0:01:37.055 13888 kbps 16322 kbps 01:05:46.359 15300 kbps 01:05:46.317 14840 kbps 01:05:43.189 72404 bytes 228941 bytes 01:05:37.308
17 1:06:28.693 0:02:16.427 14002 kbps 15932 kbps 01:07:26.876 15118 kbps 01:07:55.696 14916 kbps 01:07:50.399 73000 bytes 230453 bytes 01:07:27.418
18 1:08:45.121 0:02:50.795 14568 kbps 16560 kbps 01:10:06.118 15834 kbps 01:10:03.198 15592 kbps 01:10:02.197 75952 bytes 213755 bytes 01:09:21.532
19 1:11:35.916 0:03:56.611 14051 kbps 16433 kbps 01:14:25.169 15841 kbps 01:14:23.083 15263 kbps 01:14:22.916 73257 bytes 237974 bytes 01:15:27.272
20 1:15:32.528 0:02:00.203 13651 kbps 16172 kbps 01:15:47.251 15042 kbps 01:15:45.999 14567 kbps 01:15:44.081 71169 bytes 237041 bytes 01:15:37.282
21 1:17:32.731 0:02:48.877 14203 kbps 16675 kbps 01:18:35.127 15955 kbps 01:18:31.248 15631 kbps 01:18:26.243 74050 bytes 196429 bytes 01:18:23.448
22 1:20:21.608 0:05:01.467 13054 kbps 16604 kbps 01:23:40.974 15143 kbps 01:23:33.133 14715 kbps 01:23:33.133 68056 bytes 204377 bytes 01:24:55.090
23 1:25:23.076 0:05:38.713 13712 kbps 16234 kbps 01:31:00.413 15346 kbps 01:25:53.106 15195 kbps 01:25:49.936 71490 bytes 207046 bytes 01:25:42.137
24 1:31:01.789 0:00:42.208 13262 kbps 16948 kbps 01:31:03.040 15647 kbps 01:31:03.082 14684 kbps 01:31:02.707 70750 bytes 190005 bytes 01:31:30.109
25 1:31:43.998 0:06:54.414 6839 kbps 13296 kbps 01:37:21.627 12376 kbps 01:37:20.167 11134 kbps 01:37:16.872 35761 bytes 185621 bytes 01:36:03.758
26 1:38:38.412 0:03:18.364 8963 kbps 15235 kbps 01:40:52.087 14102 kbps 01:39:51.276 13471 kbps 01:40:45.122 47055 bytes 206974 bytes 01:40:34.194
27 1:41:56.777 0:01:53.029 11116 kbps 13618 kbps 01:42:36.692 12843 kbps 01:42:34.648 12637 kbps 01:43:17.649 57954 bytes 195588 bytes 01:43:15.772
28 1:43:49.806 0:02:50.795 10774 kbps 14115 kbps 01:45:31.700 13634 kbps 01:45:34.911 13460 kbps 01:45:30.949 56171 bytes 189184 bytes 01:45:11.305
29 1:46:40.602 0:01:47.816 11288 kbps 14793 kbps 01:46:46.525 13929 kbps 01:46:44.189 13415 kbps 01:47:41.997 58848 bytes 197194 bytes 01:47:44.458
30 1:48:28.418 0:02:53.631 12283 kbps 14788 kbps 01:50:44.512 14339 kbps 01:50:42.093 13835 kbps 01:50:39.674 64039 bytes 193889 bytes 01:48:45.519
31 1:51:22.050 0:04:15.713 10566 kbps 16068 kbps 01:53:45.777 13984 kbps 01:53:44.359 13703 kbps 01:53:45.401 55085 bytes 172168 bytes 01:53:45.818
32 1:55:37.764 0:02:38.366 10391 kbps 13701 kbps 01:57:42.013 12732 kbps 01:56:38.992 12212 kbps 01:56:39.033 54175 bytes 172919 bytes 01:56:54.007
33 1:58:16.130 0:03:56.611 12695 kbps 15860 kbps 01:59:24.365 14607 kbps 01:58:56.295 14577 kbps 01:58:57.338 66185 bytes 187463 bytes 01:59:48.181
34 2:02:12.742 0:05:34.876 12544 kbps 15827 kbps 02:03:06.253 15413 kbps 02:03:06.253 15198 kbps 02:02:13.784 65397 bytes 193646 bytes 02:07:21.634
35 2:07:47.618 0:05:11.185 9985 kbps 16230 kbps 02:12:57.386 15665 kbps 02:12:53.799 15420 kbps 02:12:48.794 52058 bytes 160031 bytes 02:12:48.919
36 2:12:58.804 0:00:47.797 13327 kbps 16499 kbps 02:12:58.804 15976 kbps 02:12:58.971 15182 kbps 02:12:58.804 70652 bytes 167503 bytes 02:13:41.972
37 2:13:46.601 0:05:02.343 10939 kbps 15788 kbps 02:16:58.877 14944 kbps 02:15:53.186 14084 kbps 02:15:52.561 57282 bytes 223981 bytes 02:16:51.161
38 2:18:48.945 0:04:33.064 10470 kbps 15062 kbps 02:21:03.872 14264 kbps 02:21:01.286 13656 kbps 02:19:32.280 54786 bytes 218459 bytes 02:20:59.409
39 2:23:22.010 0:01:36.971 12665 kbps 14671 kbps 02:23:49.746 13961 kbps 02:23:49.746 13670 kbps 02:23:45.783 66028 bytes 195216 bytes 02:24:22.945
40 2:24:58.981 0:02:10.713 12986 kbps 15450 kbps 02:26:30.072 15152 kbps 02:26:28.488 15008 kbps 02:26:27.695 67704 bytes 175907 bytes 02:25:56.748
41 2:27:09.695 0:03:11.774 12675 kbps 16085 kbps 02:28:13.092 15277 kbps 02:28:12.925 14601 kbps 02:28:12.925 66080 bytes 158001 bytes 02:27:09.821
42 2:30:21.470 0:01:42.060 12692 kbps 15589 kbps 02:31:05.097 15106 kbps 02:31:03.429 14584 kbps 02:31:00.926 66170 bytes 203519 bytes 02:32:03.114
43 2:32:03.531 0:02:30.733 13943 kbps 18270 kbps 02:34:14.036 17191 kbps 02:33:19.773 16133 kbps 02:34:07.112 72695 bytes 194151 bytes 02:34:23.128
44 2:34:34.265 0:02:40.285 13334 kbps 16671 kbps 02:35:03.627 15884 kbps 02:35:03.544 15386 kbps 02:35:01.709 69517 bytes 191645 bytes 02:37:08.293
45 2:37:14.550 0:04:59.549 14461 kbps 17150 kbps 02:41:12.788 16464 kbps 02:41:10.911 15852 kbps 02:41:05.906 75392 bytes 202815 bytes 02:38:40.385
46 2:42:14.099 0:00:35.452 13283 kbps 15854 kbps 02:42:33.243 15349 kbps 02:42:21.523 14946 kbps 02:42:21.231 70579 bytes 210210 bytes 02:42:17.352
47 2:42:49.551 0:04:21.094 12559 kbps 19137 kbps 02:46:30.063 16912 kbps 02:46:28.937 15844 kbps 02:46:24.683 65488 bytes 215718 bytes 02:44:08.463
48 2:47:10.645 0:03:03.683 12161 kbps 23076 kbps 02:49:38.751 21100 kbps 02:49:37.167 19596 kbps 02:49:33.079 63762 bytes 248466 bytes 02:49:45.842
49 2:50:14.329 0:01:05.565 15006 kbps 18107 kbps 02:50:15.330 16133 kbps 02:51:11.844 15877 kbps 02:51:09.425 78233 bytes 208581 bytes 02:50:29.594
50 2:51:19.894 0:02:08.795 14082 kbps 16247 kbps 02:51:49.882 15890 kbps 02:51:24.691 15733 kbps 02:51:23.272 73416 bytes 218485 bytes 02:53:15.760
51 2:53:28.689 0:03:09.856 13191 kbps 15930 kbps 02:56:10.601 15312 kbps 02:56:09.308 14870 kbps 02:56:06.931 68772 bytes 194491 bytes 02:55:35.900
52 2:56:38.546 0:06:41.651 14388 kbps 19312 kbps 03:02:09.501 18774 kbps 03:01:55.321 18457 kbps 03:01:51.650 75012 bytes 233655 bytes 03:02:06.624
53 3:03:20.197 0:04:59.590 11689 kbps 14477 kbps 03:08:15.742 13033 kbps 03:07:17.851 12740 kbps 03:06:11.326 60939 bytes 160326 bytes 03:05:59.857
54 3:08:19.788 0:04:40.363 12776 kbps 17565 kbps 03:12:11.228 14509 kbps 03:12:09.059 14266 kbps 03:10:56.486 66609 bytes 187497 bytes 03:12:06.515
55 3:13:00.151 0:01:12.947 12915 kbps 17473 kbps 03:13:27.637 16090 kbps 03:13:14.541 15437 kbps 03:13:10.870 67917 bytes 206651 bytes 03:13:06.575
56 3:14:13.099 0:00:39.748 2402 kbps 6115 kbps 03:14:27.072 4407 kbps 03:14:23.026 3143 kbps 03:14:21.650 14448 bytes 171186 bytes 03:14:28.657
57 3:14:52.847 0:00:01.001 84 kbps 0 kbps 00:00:00.000 0 kbps 00:00:00.000 0 kbps 00:00:00.000 479 bytes 9231 bytes 03:14:53.598

STREAM DIAGNOSTICS:

File PID Type Codec Language Seconds Bitrate Bytes Packets
---- --- ---- ----- -------- -------------- -------------- ------------- -----
00000.M2TS 4113 (0x1011) 0xEA VC-1 11719,750 12509 18325293451 99763741
00000.M2TS 4352 (0x1100) 0x81 AC3 eng (English) 11719,750 256 375035904 2197476
00014.M2TS 4113 (0x1011) 0xEA VC-1 0,876 181 19777 124
<---- END FORUMS PASTE ---->

QUICK SUMMARY:

Disc Title: PERFORMERS_OF_THE_YEAR_2012_D1
Disc Size: 19714755745 bytes
Protection: AACS
BD-Java: No
Playlist: 00001.MPLS
Size: 19643698368 bytes
Length: 3:14:53.848
Total Bitrate: 13,44 Mbps
Video: VC-1 Video / 12532 kbps / 1080p / 23,976 fps / 16:9 / Advanced Profile 3
Audio: English / Dolby Digital Audio / 2.0 / 48 kHz / 256 kbps / DN -4dB

PERFORMERS_OF_THE_YEAR_2012_D2
Disc Title: PERFORMERS_OF_THE_YEAR_2012_D2
Disc Size: 21493420918 bytes
Protection: AACS
BD-Java: No
BDInfo: 0.5.8

********************
PLAYLIST: 00001.MPLS
********************

<--- BEGIN FORUMS PASTE --->
Total Video
Title Codec Length Movie Size Disc Size Bitrate Bitrate Main Audio Track Secondary Audio Track
----- ------ ------- -------------- -------------- ------- ------- ------------------ ---------------------
00001.MPLS VC-1 1:11:21 6373006848 21493420918 11,91 11,07 DD AC3 2.0 256Kbps
DISC INFO:

Disc Title: PERFORMERS_OF_THE_YEAR_2012_D2
Disc Size: 21493420918 bytes
Protection: AACS
BD-Java: No
BDInfo: 0.5.8

PLAYLIST REPORT:

Name: 00001.MPLS
Length: 1:11:21.026 (h:m:s.ms)
Size: 6373006848 bytes
Total Bitrate: 11,91 Mbps

VIDEO:

Codec Bitrate Description
----- ------- -----------
VC-1 Video 11067 kbps 1080p / 23,976 fps / 16:9 / Advanced Profile 3

AUDIO:

Codec Language Bitrate Description
----- -------- ------- -----------
Dolby Digital Audio English 256 kbps 2.0 / 48 kHz / 256 kbps / DN -4dB

FILES:

Name Time In Length Size Total Bitrate
---- ------- ------ ---- -------------
00000.M2TS 0:00:00.000 1:11:20.025 6372976128 11912
00014.M2TS 1:11:20.025 0:00:01.000 30720 246

CHAPTERS:

Number Time In Length Avg Video Rate Max 1-Sec Rate Max 1-Sec Time Max 5-Sec Rate Max 5-Sec Time Max 10Sec Rate Max 10Sec Time Avg Frame Size Max Frame Size Max Frame Time
------ ------- ------ -------------- -------------- -------------- -------------- -------------- -------------- -------------- -------------- -------------- --------------
1 0:00:00.000 0:06:22.507 11635 kbps 16472 kbps 00:04:45.410 14792 kbps 00:05:49.057 14256 kbps 00:05:48.097 60660 bytes 255540 bytes 00:01:54.656
2 0:06:22.507 0:03:44.390 11419 kbps 20304 kbps 00:09:51.132 19603 kbps 00:09:41.831 19292 kbps 00:09:41.914 59899 bytes 284746 bytes 00:09:43.207
3 0:10:06.897 0:01:27.462 10993 kbps 13430 kbps 00:11:23.432 12634 kbps 00:11:23.182 12390 kbps 00:11:17.093 57314 bytes 192913 bytes 00:11:04.288
4 0:11:34.360 0:02:10.421 10932 kbps 12833 kbps 00:11:50.209 11767 kbps 00:12:16.736 11625 kbps 00:12:54.523 56992 bytes 198827 bytes 00:11:37.321
5 0:13:44.782 0:01:38.807 10810 kbps 12660 kbps 00:14:35.374 11956 kbps 00:14:34.498 11734 kbps 00:14:29.493 56356 bytes 180991 bytes 00:14:43.507
6 0:15:23.589 0:02:44.414 10398 kbps 12671 kbps 00:16:04.755 12304 kbps 00:16:04.088 11977 kbps 00:16:04.338 54208 bytes 153934 bytes 00:17:19.204
7 0:18:08.003 0:02:03.123 10083 kbps 13154 kbps 00:18:18.806 11594 kbps 00:18:25.312 11455 kbps 00:18:25.312 52568 bytes 181783 bytes 00:19:41.346
8 0:20:11.126 0:04:49.956 9634 kbps 13280 kbps 00:21:05.472 12688 kbps 00:21:05.389 12598 kbps 00:21:05.389 50227 bytes 201127 bytes 00:21:04.429
9 0:25:01.082 0:02:16.094 10155 kbps 11565 kbps 00:25:54.135 11029 kbps 00:25:54.135 10925 kbps 00:25:53.134 52942 bytes 185694 bytes 00:25:13.053
10 0:27:17.177 0:02:05.458 12836 kbps 16274 kbps 00:29:14.627 15719 kbps 00:29:13.293 15547 kbps 00:29:09.664 66921 bytes 192450 bytes 00:29:18.214
11 0:29:22.635 0:00:41.875 10512 kbps 13150 kbps 00:29:22.635 11965 kbps 00:29:37.942 11716 kbps 00:29:36.649 55862 bytes 146726 bytes 00:29:23.219
12 0:30:04.511 0:07:11.889 10204 kbps 14570 kbps 00:31:56.623 13104 kbps 00:35:53.901 12550 kbps 00:35:52.650 53216 bytes 233396 bytes 00:34:01.414
13 0:37:16.400 0:02:57.385 11493 kbps 15723 kbps 00:38:49.368 15054 kbps 00:38:49.368 13917 kbps 00:38:48.617 59948 bytes 238783 bytes 00:38:33.227
14 0:40:13.786 0:01:10.612 11674 kbps 13623 kbps 00:40:54.827 13194 kbps 00:40:53.784 12921 kbps 00:40:51.782 60862 bytes 182296 bytes 00:41:07.756
15 0:41:24.398 0:01:42.852 12249 kbps 13739 kbps 00:42:23.624 13264 kbps 00:42:49.900 13057 kbps 00:42:50.818 63860 bytes 192297 bytes 00:42:25.834
16 0:43:07.251 0:03:56.527 12569 kbps 14802 kbps 00:46:57.272 14137 kbps 00:45:09.790 13589 kbps 00:45:05.869 65531 bytes 192193 bytes 00:45:44.283
17 0:47:03.779 0:04:50.748 12613 kbps 14927 kbps 00:49:07.569 14277 kbps 00:49:11.990 14146 kbps 00:49:07.486 65758 bytes 186554 bytes 00:47:27.845
18 0:51:54.528 0:02:16.094 11616 kbps 13924 kbps 00:53:21.031 13248 kbps 00:52:41.032 12652 kbps 00:52:36.611 60563 bytes 171375 bytes 00:53:14.065
19 0:54:10.622 0:03:33.838 11924 kbps 14594 kbps 00:57:34.284 13557 kbps 00:56:43.274 13415 kbps 00:56:43.024 62168 bytes 187627 bytes 00:54:27.806
20 0:57:44.461 0:04:00.531 11690 kbps 13661 kbps 00:58:42.602 12917 kbps 01:00:00.722 12724 kbps 01:00:03.182 60948 bytes 176538 bytes 01:01:33.898
21 1:01:44.992 0:05:59.650 11051 kbps 13253 kbps 01:06:57.805 12577 kbps 01:06:46.627 12482 kbps 01:07:32.339 57614 bytes 170850 bytes 01:07:32.798
22 1:07:44.643 0:01:01.060 12092 kbps 13267 kbps 01:08:23.224 12572 kbps 01:08:23.474 12458 kbps 01:08:23.474 63044 bytes 152429 bytes 01:07:44.810
23 1:08:45.704 0:00:58.558 11905 kbps 16972 kbps 01:09:10.980 14546 kbps 01:09:08.227 13825 kbps 01:09:03.472 62557 bytes 184141 bytes 01:09:23.701
24 1:09:44.263 0:01:10.069 2415 kbps 9161 kbps 01:10:10.706 5427 kbps 01:10:10.456 4297 kbps 01:10:08.037 13210 bytes 160028 bytes 01:10:11.081
25 1:10:54.333 0:00:25.692 1520 kbps 4590 kbps 01:10:54.333 2044 kbps 01:10:58.170 1914 kbps 01:10:54.333 9405 bytes 128717 bytes 01:10:56.210
26 1:11:20.025 0:00:01.001 84 kbps 0 kbps 00:00:00.000 0 kbps 00:00:00.000 0 kbps 00:00:00.000 479 bytes 9231 bytes 01:11:20.776

STREAM DIAGNOSTICS:

File PID Type Codec Language Seconds Bitrate Bytes Packets
---- --- ---- ----- -------- -------------- -------------- ------------- -----
00000.M2TS 4113 (0x1011) 0xEA VC-1 4306,385 11012 5927982650 32279557
00000.M2TS 4352 (0x1100) 0x81 AC3 eng (English) 4306,385 256 137807872 807468
00014.M2TS 4113 (0x1011) 0xEA VC-1 0,876 181 19777 124
<---- END FORUMS PASTE ---->

QUICK SUMMARY:

Disc Title: PERFORMERS_OF_THE_YEAR_2012_D2
Disc Size: 21493420918 bytes
Protection: AACS
BD-Java: No
Playlist: 00001.MPLS
Size: 6373006848 bytes
Length: 1:11:21.026
Total Bitrate: 11,91 Mbps
Video: VC-1 Video / 11067 kbps / 1080p / 23,976 fps / 16:9 / Advanced Profile 3
Audio: English / Dolby Digital Audio / 2.0 / 48 kHz / 256 kbps / DN -4dB

********************
PLAYLIST: 00010.MPLS
********************

<--- BEGIN FORUMS PASTE --->
Total Video
Title Codec Length Movie Size Disc Size Bitrate Bitrate Main Audio Track Secondary Audio Track
----- ------ ------- -------------- -------------- ------- ------- ------------------ ---------------------
00010.MPLS VC-1 0:44:36 3919393152 21493420918 11,72 10,87 DD AC3 2.0 256Kbps
DISC INFO:

Disc Title: PERFORMERS_OF_THE_YEAR_2012_D2
Disc Size: 21493420918 bytes
Protection: AACS
BD-Java: No
BDInfo: 0.5.8

PLAYLIST REPORT:

Name: 00010.MPLS
Length: 0:44:36.256 (h:m:s.ms)
Size: 3919393152 bytes
Total Bitrate: 11,72 Mbps

VIDEO:

Codec Bitrate Description
----- ------- -----------
VC-1 Video 10869 kbps 1080p / 23,976 fps / 16:9 / Advanced Profile 3

AUDIO:

Codec Language Bitrate Description
----- -------- ------- -----------
Dolby Digital Audio English 256 kbps 2.0 / 48 kHz / 256 kbps / DN -4dB

FILES:

Name Time In Length Size Total Bitrate
---- ------- ------ ---- -------------
00011.M2TS 0:00:00.000 0:44:35.255 3919362432 11720
00014.M2TS 0:44:35.255 0:00:01.000 30720 246

CHAPTERS:

Number Time In Length Avg Video Rate Max 1-Sec Rate Max 1-Sec Time Max 5-Sec Rate Max 5-Sec Time Max 10Sec Rate Max 10Sec Time Avg Frame Size Max Frame Size Max Frame Time
------ ------- ------ -------------- -------------- -------------- -------------- -------------- -------------- -------------- -------------- -------------- --------------
1 0:00:00.000 0:04:08.248 9141 kbps 14473 kbps 00:00:02.460 12465 kbps 00:00:01.584 11732 kbps 00:02:24.144 47836 bytes 187680 bytes 00:00:58.349
2 0:04:08.248 0:04:52.417 10306 kbps 13631 kbps 00:05:49.640 12577 kbps 00:05:45.720 12120 kbps 00:05:40.631 53754 bytes 154579 bytes 00:05:45.011
3 0:09:00.665 0:02:05.875 10271 kbps 12961 kbps 00:10:55.363 12085 kbps 00:10:54.195 11695 kbps 00:10:52.526 53548 bytes 162525 bytes 00:10:55.988
4 0:11:06.540 0:02:21.182 10816 kbps 13123 kbps 00:11:44.662 12475 kbps 00:11:42.743 12185 kbps 00:11:41.992 56425 bytes 151725 bytes 00:11:11.003
5 0:13:27.723 0:03:10.273 11389 kbps 13595 kbps 00:15:18.250 12700 kbps 00:15:17.958 12408 kbps 00:15:17.958 59414 bytes 163896 bytes 00:14:54.894
6 0:16:37.997 0:00:42.584 11544 kbps 12828 kbps 00:16:50.134 12272 kbps 00:16:46.380 11978 kbps 00:16:42.376 60184 bytes 145836 bytes 00:16:48.007
7 0:17:20.581 0:02:27.480 10819 kbps 14635 kbps 00:19:32.713 13365 kbps 00:19:28.667 13003 kbps 00:19:28.667 56599 bytes 161932 bytes 00:19:41.847
8 0:19:48.061 0:01:51.194 12135 kbps 16006 kbps 00:21:17.901 15222 kbps 00:21:29.079 14454 kbps 00:21:27.327 63455 bytes 185402 bytes 00:21:21.029
9 0:21:39.256 0:02:17.554 12544 kbps 16217 kbps 00:21:46.013 15656 kbps 00:21:46.096 15283 kbps 00:21:45.929 66122 bytes 186289 bytes 00:22:10.078
10 0:23:56.810 0:04:42.532 11783 kbps 17391 kbps 00:24:05.485 15211 kbps 00:24:05.485 14992 kbps 00:24:05.360 62606 bytes 185142 bytes 00:28:02.514
11 0:28:39.342 0:01:11.112 11850 kbps 18252 kbps 00:29:11.458 16055 kbps 00:29:08.830 14689 kbps 00:29:03.199 62888 bytes 179186 bytes 00:29:01.573
12 0:29:50.455 0:03:08.229 10944 kbps 14983 kbps 00:32:11.721 13619 kbps 00:32:09.719 13362 kbps 00:32:08.801 58046 bytes 175421 bytes 00:32:25.944
13 0:32:58.685 0:06:11.788 10816 kbps 15666 kbps 00:33:19.038 14348 kbps 00:33:19.330 13766 kbps 00:33:36.889 57905 bytes 200034 bytes 00:39:09.805
14 0:39:10.473 0:04:09.666 10420 kbps 12911 kbps 00:39:14.101 11994 kbps 00:39:14.101 11655 kbps 00:39:10.848 55135 bytes 191820 bytes 00:39:12.808
15 0:43:20.139 0:01:15.116 10657 kbps 12256 kbps 00:43:29.481 11824 kbps 00:43:21.557 11716 kbps 00:43:20.556 56218 bytes 154449 bytes 00:44:24.661
16 0:44:35.255 0:00:01.000 84 kbps 0 kbps 00:00:00.000 0 kbps 00:00:00.000 0 kbps 00:00:00.000 479 bytes 9231 bytes 00:44:36.006

STREAM DIAGNOSTICS:

File PID Type Codec Language Seconds Bitrate Bytes Packets
---- --- ---- ----- -------- -------------- -------------- ------------- -----
00011.M2TS 4113 (0x1011) 0xEA VC-1 2675,173 10873 3635884178 19825189
00011.M2TS 4352 (0x1100) 0x81 AC3 eng (English) 2675,173 253 84744984 496656
00014.M2TS 4113 (0x1011) 0xEA VC-1 0,876 181 19777 124
<---- END FORUMS PASTE ---->

QUICK SUMMARY:

Disc Title: PERFORMERS_OF_THE_YEAR_2012_D2
Disc Size: 21493420918 bytes
Protection: AACS
BD-Java: No
Playlist: 00010.MPLS
Size: 3919393152 bytes
Length: 0:44:36.256
Total Bitrate: 11,72 Mbps
Video: VC-1 Video / 10869 kbps / 1080p / 23,976 fps / 16:9 / Advanced Profile 3
Audio: English / Dolby Digital Audio / 2.0 / 48 kHz / 256 kbps / DN -4dB

********************
PLAYLIST: 00004.MPLS
********************

<--- BEGIN FORUMS PASTE --->
Total Video
Title Codec Length Movie Size Disc Size Bitrate Bitrate Main Audio Track Secondary Audio Track
----- ------ ------- -------------- -------------- ------- ------- ------------------ ---------------------
00004.MPLS VC-1 0:39:10 3476529216 21493420918 11,83 10,99 DD AC3 2.0 256Kbps
DISC INFO:

Disc Title: PERFORMERS_OF_THE_YEAR_2012_D2
Disc Size: 21493420918 bytes
Protection: AACS
BD-Java: No
BDInfo: 0.5.8

PLAYLIST REPORT:

Name: 00004.MPLS
Length: 0:39:10.264 (h:m:s.ms)
Size: 3476529216 bytes
Total Bitrate: 11,83 Mbps

VIDEO:

Codec Bitrate Description
----- ------- -----------
VC-1 Video 10994 kbps 1080p / 23,976 fps / 16:9 / Advanced Profile 3

AUDIO:

Codec Language Bitrate Description
----- -------- ------- -----------
Dolby Digital Audio English 256 kbps 2.0 / 48 kHz / 256 kbps / DN -4dB

FILES:

Name Time In Length Size Total Bitrate
---- ------- ------ ---- -------------
00003.M2TS 0:00:00.000 0:39:09.263 3476498496 11839
00014.M2TS 0:39:09.263 0:00:01.000 30720 246

CHAPTERS:

Number Time In Length Avg Video Rate Max 1-Sec Rate Max 1-Sec Time Max 5-Sec Rate Max 5-Sec Time Max 10Sec Rate Max 10Sec Time Avg Frame Size Max Frame Size Max Frame Time
------ ------- ------ -------------- -------------- -------------- -------------- -------------- -------------- -------------- -------------- -------------- --------------
1 0:00:00.000 0:04:31.604 11401 kbps 20686 kbps 00:04:12.335 16362 kbps 00:04:12.210 15208 kbps 00:03:50.396 59612 bytes 185721 bytes 00:03:54.776
2 0:04:31.604 0:01:37.472 10871 kbps 12685 kbps 00:05:41.382 11889 kbps 00:05:41.215 11459 kbps 00:04:31.688 56675 bytes 139209 bytes 00:04:39.362
3 0:06:09.077 0:01:42.435 10938 kbps 12300 kbps 00:06:27.845 11771 kbps 00:06:59.544 11714 kbps 00:06:27.428 57027 bytes 144188 bytes 00:06:30.473
4 0:07:51.512 0:00:48.757 10571 kbps 11935 kbps 00:08:04.609 11609 kbps 00:08:04.192 11419 kbps 00:08:01.606 55112 bytes 167658 bytes 00:08:21.501
5 0:08:40.269 0:05:43.092 10581 kbps 12281 kbps 00:12:52.730 11376 kbps 00:11:10.836 11277 kbps 00:10:45.353 55167 bytes 166359 bytes 00:14:02.842
6 0:14:23.362 0:02:42.537 11251 kbps 13533 kbps 00:16:47.881 13191 kbps 00:16:43.627 12785 kbps 00:16:41.834 58659 bytes 183376 bytes 00:16:07.967
7 0:17:05.899 0:06:34.936 11120 kbps 13382 kbps 00:23:26.321 12674 kbps 00:23:24.069 12278 kbps 00:23:21.650 57973 bytes 178561 bytes 00:22:22.466
8 0:23:40.836 0:03:18.573 10549 kbps 14029 kbps 00:26:17.158 13353 kbps 00:26:17.158 13022 kbps 00:26:14.489 54996 bytes 200677 bytes 00:25:02.501
9 0:26:59.409 0:05:26.993 11443 kbps 14258 kbps 00:28:03.056 13218 kbps 00:28:03.056 13101 kbps 00:28:03.098 59668 bytes 169547 bytes 00:28:03.306
10 0:32:26.402 0:04:28.685 11147 kbps 13944 kbps 00:34:42.705 13297 kbps 00:34:42.371 13141 kbps 00:34:42.121 58116 bytes 169012 bytes 00:34:47.085
11 0:36:55.087 0:02:14.175 10171 kbps 12942 kbps 00:37:59.819 12517 kbps 00:37:58.818 12052 kbps 00:37:56.399 53108 bytes 159852 bytes 00:38:14.292
12 0:39:09.263 0:00:01.001 84 kbps 0 kbps 00:00:00.000 0 kbps 00:00:00.000 0 kbps 00:00:00.000 479 bytes 9231 bytes 00:39:10.014

STREAM DIAGNOSTICS:

File PID Type Codec Language Seconds Bitrate Bytes Packets
---- --- ---- ----- -------- -------------- -------------- ------------- -----
00003.M2TS 4113 (0x1011) 0xEA VC-1 2349,180 10999 3229861867 17587571
00003.M2TS 4352 (0x1100) 0x81 AC3 eng (English) 2349,180 256 75174912 440478
00014.M2TS 4113 (0x1011) 0xEA VC-1 0,876 181 19777 124
<---- END FORUMS PASTE ---->

QUICK SUMMARY:

Disc Title: PERFORMERS_OF_THE_YEAR_2012_D2
Disc Size: 21493420918 bytes
Protection: AACS
BD-Java: No
Playlist: 00004.MPLS
Size: 3476529216 bytes
Length: 0:39:10.264
Total Bitrate: 11,83 Mbps
Video: VC-1 Video / 10994 kbps / 1080p / 23,976 fps / 16:9 / Advanced Profile 3
Audio: English / Dolby Digital Audio / 2.0 / 48 kHz / 256 kbps / DN -4dB

********************
PLAYLIST: 00011.MPLS
********************

<--- BEGIN FORUMS PASTE --->
Total Video
Title Codec Length Movie Size Disc Size Bitrate Bitrate Main Audio Track Secondary Audio Track
----- ------ ------- -------------- -------------- ------- ------- ------------------ ---------------------
00011.MPLS VC-1 0:33:28 2921334528 21493420918 11,63 10,79 DD AC3 2.0 256Kbps
DISC INFO:

Disc Title: PERFORMERS_OF_THE_YEAR_2012_D2
Disc Size: 21493420918 bytes
Protection: AACS
BD-Java: No
BDInfo: 0.5.8

PLAYLIST REPORT:

Name: 00011.MPLS
Length: 0:33:28.673 (h:m:s.ms)
Size: 2921334528 bytes
Total Bitrate: 11,63 Mbps

VIDEO:

Codec Bitrate Description
----- ------- -----------
VC-1 Video 10789 kbps 1080p / 23,976 fps / 16:9 / Advanced Profile 3

AUDIO:

Codec Language Bitrate Description
----- -------- ------- -----------
Dolby Digital Audio English 256 kbps 2.0 / 48 kHz / 256 kbps / DN -4dB

FILES:

Name Time In Length Size Total Bitrate
---- ------- ------ ---- -------------
00012.M2TS 0:00:00.000 0:33:27.672 2921303808 11643
00014.M2TS 0:33:27.672 0:00:01.000 30720 246

CHAPTERS:

Number Time In Length Avg Video Rate Max 1-Sec Rate Max 1-Sec Time Max 5-Sec Rate Max 5-Sec Time Max 10Sec Rate Max 10Sec Time Avg Frame Size Max Frame Size Max Frame Time
------ ------- ------ -------------- -------------- -------------- -------------- -------------- -------------- -------------- -------------- -------------- --------------
1 0:00:00.000 0:02:21.099 9853 kbps 17555 kbps 00:01:24.626 14344 kbps 00:00:19.060 13507 kbps 00:00:16.141 52064 bytes 191673 bytes 00:00:30.029
2 0:02:21.099 0:04:19.801 14564 kbps 19936 kbps 00:05:50.516 19000 kbps 00:05:46.095 18281 kbps 00:05:41.507 76579 bytes 235349 bytes 00:03:36.674
3 0:06:40.900 0:02:11.256 9643 kbps 13768 kbps 00:06:52.954 12312 kbps 00:07:43.087 11968 kbps 00:07:26.654 50824 bytes 241626 bytes 00:07:49.135
4 0:08:52.156 0:01:56.699 11663 kbps 17115 kbps 00:10:05.313 15921 kbps 00:10:03.477 15594 kbps 00:10:04.145 61532 bytes 189156 bytes 00:09:49.255
5 0:10:48.856 0:01:59.494 9637 kbps 13093 kbps 00:12:09.437 12401 kbps 00:12:15.609 12185 kbps 00:12:09.520 51028 bytes 169692 bytes 00:12:12.815
6 0:12:48.350 0:01:20.580 8253 kbps 11312 kbps 00:13:58.963 10392 kbps 00:13:57.127 9589 kbps 00:13:57.044 44672 bytes 145748 bytes 00:14:01.173
7 0:14:08.931 0:02:53.673 10444 kbps 13459 kbps 00:16:01.168 13127 kbps 00:15:59.083 12805 kbps 00:15:54.161 55559 bytes 193413 bytes 00:14:23.195
8 0:17:02.604 0:01:53.947 11569 kbps 13899 kbps 00:18:31.110 13008 kbps 00:18:27.106 12528 kbps 00:17:07.234 62369 bytes 169444 bytes 00:18:01.121
9 0:18:56.552 0:03:20.074 9724 kbps 13328 kbps 00:22:06.575 12457 kbps 00:21:57.065 12339 kbps 00:21:51.935 51478 bytes 171901 bytes 00:21:08.350
10 0:22:16.626 0:01:28.421 11657 kbps 14802 kbps 00:23:02.047 14035 kbps 00:22:22.883 13551 kbps 00:23:00.337 61678 bytes 176637 bytes 00:22:26.345
11 0:23:45.048 0:08:44.315 10276 kbps 14066 kbps 00:29:01.740 13181 kbps 00:28:58.903 12568 kbps 00:28:54.899 54698 bytes 163309 bytes 00:30:31.621
12 0:32:29.364 0:00:58.308 9474 kbps 12373 kbps 00:33:21.624 11334 kbps 00:32:33.951 10987 kbps 00:32:31.074 52233 bytes 218290 bytes 00:32:43.795
13 0:33:27.672 0:00:01.000 84 kbps 0 kbps 00:00:00.000 0 kbps 00:00:00.000 0 kbps 00:00:00.000 479 bytes 9231 bytes 00:33:28.423

STREAM DIAGNOSTICS:

File PID Type Codec Language Seconds Bitrate Bytes Packets
---- --- ---- ----- -------- -------------- -------------- ------------- -----
00012.M2TS 4113 (0x1011) 0xEA VC-1 2007,130 10795 2708260555 14776000
00012.M2TS 4352 (0x1100) 0x81 AC3 eng (English) 2007,130 251 63036499 369480
00014.M2TS 4113 (0x1011) 0xEA VC-1 0,876 181 19777 124
<---- END FORUMS PASTE ---->

QUICK SUMMARY:

Disc Title: PERFORMERS_OF_THE_YEAR_2012_D2
Disc Size: 21493420918 bytes
Protection: AACS
BD-Java: No
Playlist: 00011.MPLS
Size: 2921334528 bytes
Length: 0:33:28.673
Total Bitrate: 11,63 Mbps
Video: VC-1 Video / 10789 kbps / 1080p / 23,976 fps / 16:9 / Advanced Profile 3
Audio: English / Dolby Digital Audio / 2.0 / 48 kHz / 256 kbps / DN -4dB

********************
PLAYLIST: 00009.MPLS
********************

<--- BEGIN FORUMS PASTE --->
Total Video
Title Codec Length Movie Size Disc Size Bitrate Bitrate Main Audio Track Secondary Audio Track
----- ------ ------- -------------- -------------- ------- ------- ------------------ ---------------------
00009.MPLS VC-1 0:28:18 2514100224 21493420918 11,84 11,00 DD AC3 2.0 256Kbps
DISC INFO:

Disc Title: PERFORMERS_OF_THE_YEAR_2012_D2
Disc Size: 21493420918 bytes
Protection: AACS
BD-Java: No
BDInfo: 0.5.8

PLAYLIST REPORT:

Name: 00009.MPLS
Length: 0:28:18.154 (h:m:s.ms)
Size: 2514100224 bytes
Total Bitrate: 11,84 Mbps

VIDEO:

Codec Bitrate Description
----- ------- -----------
VC-1 Video 11003 kbps 1080p / 23,976 fps / 16:9 / Advanced Profile 3

AUDIO:

Codec Language Bitrate Description
----- -------- ------- -----------
Dolby Digital Audio English 256 kbps 2.0 / 48 kHz / 256 kbps / DN -4dB

FILES:

Name Time In Length Size Total Bitrate
---- ------- ------ ---- -------------
00010.M2TS 0:00:00.000 0:28:17.153 2514069504 11851
00014.M2TS 0:28:17.153 0:00:01.000 30720 246

CHAPTERS:

Number Time In Length Avg Video Rate Max 1-Sec Rate Max 1-Sec Time Max 5-Sec Rate Max 5-Sec Time Max 10Sec Rate Max 10Sec Time Avg Frame Size Max Frame Size Max Frame Time
------ ------- ------ -------------- -------------- -------------- -------------- -------------- -------------- -------------- -------------- -------------- --------------
1 0:00:00.000 0:02:56.801 9334 kbps 20277 kbps 00:00:36.536 18422 kbps 00:00:32.532 15376 kbps 00:00:27.986 48907 bytes 261376 bytes 00:00:33.575
2 0:02:56.801 0:00:59.267 11348 kbps 14591 kbps 00:02:56.843 12621 kbps 00:03:02.432 12461 kbps 00:02:56.968 59161 bytes 184681 bytes 00:03:08.980
3 0:03:56.069 0:02:23.309 10904 kbps 13321 kbps 00:06:14.248 12224 kbps 00:06:11.287 11560 kbps 00:06:08.659 56847 bytes 180781 bytes 00:05:34.000
4 0:06:19.379 0:03:41.971 11708 kbps 14803 kbps 00:08:54.242 13893 kbps 00:08:54.450 13706 kbps 00:08:52.823 61038 bytes 179297 bytes 00:07:57.143
5 0:10:01.350 0:02:12.715 10848 kbps 14970 kbps 00:11:49.917 13317 kbps 00:11:46.580 12826 kbps 00:11:43.244 56573 bytes 170460 bytes 00:12:04.723
6 0:12:14.066 0:02:58.553 10638 kbps 14361 kbps 00:13:31.519 12808 kbps 00:14:38.878 12612 kbps 00:14:38.210 55501 bytes 172595 bytes 00:13:31.810
7 0:15:12.620 0:04:31.312 10637 kbps 13735 kbps 00:18:29.566 13370 kbps 00:18:27.773 13218 kbps 00:18:27.648 55457 bytes 148354 bytes 00:18:32.778
8 0:19:43.932 0:04:56.462 11798 kbps 15295 kbps 00:24:28.592 13288 kbps 00:24:25.589 12969 kbps 00:24:21.001 61526 bytes 166859 bytes 00:22:50.369
9 0:24:40.395 0:02:55.967 11357 kbps 14738 kbps 00:26:37.804 13354 kbps 00:24:41.605 12785 kbps 00:24:40.437 59222 bytes 166871 bytes 00:24:40.812
10 0:27:36.363 0:00:40.790 11772 kbps 14479 kbps 00:28:06.810 13228 kbps 00:27:59.844 12857 kbps 00:27:57.801 61816 bytes 185371 bytes 00:28:07.018
11 0:28:17.153 0:00:01.000 84 kbps 0 kbps 00:00:00.000 0 kbps 00:00:00.000 0 kbps 00:00:00.000 479 bytes 9231 bytes 00:28:17.904

STREAM DIAGNOSTICS:

File PID Type Codec Language Seconds Bitrate Bytes Packets
---- --- ---- ----- -------- -------------- -------------- ------------- -----
00010.M2TS 4113 (0x1011) 0xEA VC-1 1696,987 11011 2335680510 12719055
00010.M2TS 4352 (0x1100) 0x81 AC3 eng (English) 1696,987 256 54300672 318168
00014.M2TS 4113 (0x1011) 0xEA VC-1 0,876 181 19777 124
<---- END FORUMS PASTE ---->

QUICK SUMMARY:

Disc Title: PERFORMERS_OF_THE_YEAR_2012_D2
Disc Size: 21493420918 bytes
Protection: AACS
BD-Java: No
Playlist: 00009.MPLS
Size: 2514100224 bytes
Length: 0:28:18.154
Total Bitrate: 11,84 Mbps
Video: VC-1 Video / 11003 kbps / 1080p / 23,976 fps / 16:9 / Advanced Profile 3
Audio: English / Dolby Digital Audio / 2.0 / 48 kHz / 256 kbps / DN -4dB

********************
PLAYLIST: 00002.MPLS
********************

<--- BEGIN FORUMS PASTE --->
Total Video
Title Codec Length Movie Size Disc Size Bitrate Bitrate Main Audio Track Secondary Audio Track
----- ------ ------- -------------- -------------- ------- ------- ------------------ ---------------------
00002.MPLS VC-1 0:06:19 560984064 21493420918 11,82 10,98 DD AC3 2.0 256Kbps
DISC INFO:

Disc Title: PERFORMERS_OF_THE_YEAR_2012_D2
Disc Size: 21493420918 bytes
Protection: AACS
BD-Java: No
BDInfo: 0.5.8

PLAYLIST REPORT:

Name: 00002.MPLS
Length: 0:06:19.587 (h:m:s.ms)
Size: 560984064 bytes
Total Bitrate: 11,82 Mbps

VIDEO:

Codec Bitrate Description
----- ------- -----------
VC-1 Video 10984 kbps 1080p / 23,976 fps / 16:9 / Advanced Profile 3

AUDIO:

Codec Language Bitrate Description
----- -------- ------- -----------
Dolby Digital Audio English 256 kbps 2.0 / 48 kHz / 256 kbps / DN -4dB

FILES:

Name Time In Length Size Total Bitrate
---- ------- ------ ---- -------------
00001.M2TS 0:00:00.000 0:06:18.586 560953344 11854
00014.M2TS 0:06:18.586 0:00:01.000 30720 246

CHAPTERS:

Number Time In Length Avg Video Rate Max 1-Sec Rate Max 1-Sec Time Max 5-Sec Rate Max 5-Sec Time Max 10Sec Rate Max 10Sec Time Avg Frame Size Max Frame Size Max Frame Time
------ ------- ------ -------------- -------------- -------------- -------------- -------------- -------------- -------------- -------------- -------------- --------------
1 0:00:00.000 0:03:10.064 12621 kbps 16115 kbps 00:01:23.291 14283 kbps 00:01:21.456 13969 kbps 00:01:17.452 65785 bytes 222974 bytes 00:00:26.025
2 0:03:10.064 0:00:21.688 11473 kbps 15088 kbps 00:03:11.316 12609 kbps 00:03:10.148 11609 kbps 00:03:10.148 59815 bytes 174666 bytes 00:03:26.873
3 0:03:31.753 0:00:40.874 10093 kbps 14777 kbps 00:03:31.836 12650 kbps 00:03:31.753 11393 kbps 00:03:31.753 52621 bytes 165612 bytes 00:03:42.555
4 0:04:12.627 0:00:18.268 11586 kbps 13193 kbps 00:04:18.132 12740 kbps 00:04:17.757 12225 kbps 00:04:12.794 60403 bytes 144410 bytes 00:04:19.259
5 0:04:30.895 0:01:47.690 8335 kbps 10987 kbps 00:04:39.320 9881 kbps 00:04:36.484 9384 kbps 00:04:35.316 43933 bytes 153347 bytes 00:04:43.283
6 0:06:18.586 0:00:01.000 84 kbps 0 kbps 00:00:00.000 0 kbps 00:00:00.000 0 kbps 00:00:00.000 479 bytes 9231 bytes 00:06:19.337

STREAM DIAGNOSTICS:

File PID Type Codec Language Seconds Bitrate Bytes Packets
---- --- ---- ----- -------- -------------- -------------- ------------- -----
00001.M2TS 4113 (0x1011) 0xEA VC-1 378,461 11017 521172446 2837926
00001.M2TS 4352 (0x1100) 0x81 AC3 eng (English) 378,461 256 12113920 70980
00014.M2TS 4113 (0x1011) 0xEA VC-1 0,876 181 19777 124
<---- END FORUMS PASTE ---->

QUICK SUMMARY:

Disc Title: PERFORMERS_OF_THE_YEAR_2012_D2
Disc Size: 21493420918 bytes
Protection: AACS
BD-Java: No
Playlist: 00002.MPLS
Size: 560984064 bytes
Length: 0:06:19.587
Total Bitrate: 11,82 Mbps
Video: VC-1 Video / 10984 kbps / 1080p / 23,976 fps / 16:9 / Advanced Profile 3
Audio: English / Dolby Digital Audio / 2.0 / 48 kHz / 256 kbps / DN -4dB

********************
PLAYLIST: 00012.MPLS
********************

<--- BEGIN FORUMS PASTE --->
Total Video
Title Codec Length Movie Size Disc Size Bitrate Bitrate Main Audio Track Secondary Audio Track
----- ------ ------- -------------- -------------- ------- ------- ------------------ ---------------------
00012.MPLS VC-1 0:03:01 245701440 21493420918 10,83 10,06 DD AC3 2.0 192Kbps
DISC INFO:

Disc Title: PERFORMERS_OF_THE_YEAR_2012_D2
Disc Size: 21493420918 bytes
Protection: AACS
BD-Java: No
BDInfo: 0.5.8

PLAYLIST REPORT:

Name: 00012.MPLS
Length: 0:03:01.556 (h:m:s.ms)
Size: 245701440 bytes
Total Bitrate: 10,83 Mbps

VIDEO:

Codec Bitrate Description
----- ------- -----------
VC-1 Video 10063 kbps 1080p / 23,976 fps / 16:9 / Advanced Profile 3

AUDIO:

Codec Language Bitrate Description
----- -------- ------- -----------
Dolby Digital Audio English 192 kbps 2.0 / 48 kHz / 192 kbps / DN -4dB

FILES:

Name Time In Length Size Total Bitrate
---- ------- ------ ---- -------------
00013.M2TS 0:00:00.000 0:03:00.555 245670720 10885
00014.M2TS 0:03:00.555 0:00:01.000 30720 246

CHAPTERS:

Number Time In Length Avg Video Rate Max 1-Sec Rate Max 1-Sec Time Max 5-Sec Rate Max 5-Sec Time Max 10Sec Rate Max 10Sec Time Avg Frame Size Max Frame Size Max Frame Time
------ ------- ------ -------------- -------------- -------------- -------------- -------------- -------------- -------------- -------------- -------------- --------------
1 0:00:00.000 0:03:00.555 10118 kbps 22619 kbps 00:01:56.449 15414 kbps 00:02:19.931 14742 kbps 00:02:19.764 53769 bytes 382432 bytes 00:00:46.129
2 0:03:00.555 0:00:01.000 84 kbps 0 kbps 00:00:00.000 0 kbps 00:00:00.000 0 kbps 00:00:00.000 479 bytes 9231 bytes 00:03:01.306

STREAM DIAGNOSTICS:

File PID Type Codec Language Seconds Bitrate Bytes Packets
---- --- ---- ----- -------- -------------- -------------- ------------- -----
00013.M2TS 4113 (0x1011) 0xEA VC-1 180,430 10125 228348783 1245544
00013.M2TS 4352 (0x1100) 0x81 AC3 eng (English) 180,430 189 4252799 27691
00014.M2TS 4113 (0x1011) 0xEA VC-1 0,876 181 19777 124
<---- END FORUMS PASTE ---->

QUICK SUMMARY:

Disc Title: PERFORMERS_OF_THE_YEAR_2012_D2
Disc Size: 21493420918 bytes
Protection: AACS
BD-Java: No
Playlist: 00012.MPLS
Size: 245701440 bytes
Length: 0:03:01.556
Total Bitrate: 10,83 Mbps
Video: VC-1 Video / 10063 kbps / 1080p / 23,976 fps / 16:9 / Advanced Profile 3
Audio: English / Dolby Digital Audio / 2.0 / 48 kHz / 192 kbps / DN -4dB

********************
PLAYLIST: 00000.MPLS
********************

<--- BEGIN FORUMS PASTE --->
Total Video
Title Codec Length Movie Size Disc Size Bitrate Bitrate Main Audio Track Secondary Audio Track
----- ------ ------- -------------- -------------- ------- ------- ------------------ ---------------------
00000.MPLS VC-1 0:00:25 7291776 21493420918 2,33 1,90 DD AC3 2.0 256Kbps
DISC INFO:

Disc Title: PERFORMERS_OF_THE_YEAR_2012_D2
Disc Size: 21493420918 bytes
Protection: AACS
BD-Java: No
BDInfo: 0.5.8

PLAYLIST REPORT:

Name: 00000.MPLS
Length: 0:00:25.024 (h:m:s.ms)
Size: 7291776 bytes
Total Bitrate: 2,33 Mbps

VIDEO:

Codec Bitrate Description
----- ------- -----------
VC-1 Video 1898 kbps 1080p / 23,976 fps / 16:9 / Advanced Profile 3

AUDIO:

Codec Language Bitrate Description
----- -------- ------- -----------
Dolby Digital Audio English 256 kbps 2.0 / 48 kHz / 256 kbps / DN -4dB

FILES:

Name Time In Length Size Total Bitrate
---- ------- ------ ---- -------------
00000.M2TS 0:00:00.000 0:00:24.024 7261056 2414
00014.M2TS 0:00:24.024 0:00:01.000 30720 246

CHAPTERS:

Number Time In Length Avg Video Rate Max 1-Sec Rate Max 1-Sec Time Max 5-Sec Rate Max 5-Sec Time Max 10Sec Rate Max 10Sec Time Avg Frame Size Max Frame Size Max Frame Time
------ ------- ------ -------------- -------------- -------------- -------------- -------------- -------------- -------------- -------------- -------------- --------------
1 0:00:00.000 0:00:24.024 1974 kbps 5905 kbps 00:00:00.041 2535 kbps 00:00:03.962 2363 kbps 00:00:00.000 11997 bytes 153480 bytes 00:00:02.001
2 0:00:24.024 0:00:01.000 224 kbps 224 kbps 00:00:24.023 0 kbps 00:00:00.000 0 kbps 00:00:00.000 2155 bytes 9232 bytes 00:00:25.024

STREAM DIAGNOSTICS:

File PID Type Codec Language Seconds Bitrate Bytes Packets
---- --- ---- ----- -------- -------------- -------------- ------------- -----
00000.M2TS 4113 (0x1011) 0xEA VC-1 4306,385 11012 5927982650 32279557
00000.M2TS 4352 (0x1100) 0x81 AC3 eng (English) 4306,385 256 137807872 807468
00014.M2TS 4113 (0x1011) 0xEA VC-1 0,876 181 19777 124
<---- END FORUMS PASTE ---->

QUICK SUMMARY:

Disc Title: PERFORMERS_OF_THE_YEAR_2012_D2
Disc Size: 21493420918 bytes
Protection: AACS
BD-Java: No
Playlist: 00000.MPLS
Size: 7291776 bytes
Length: 0:00:25.024
Total Bitrate: 2,33 Mbps
Video: VC-1 Video / 1898 kbps / 1080p / 23,976 fps / 16:9 / Advanced Profile 3
Audio: English / Dolby Digital Audio / 2.0 / 48 kHz / 256 kbps / DN -4dB

********************
PLAYLIST: 00003.MPLS
********************

<--- BEGIN FORUMS PASTE --->
Total Video
Title Codec Length Movie Size Disc Size Bitrate Bitrate Main Audio Track Secondary Audio Track
----- ------ ------- -------------- -------------- ------- ------- ------------------ ---------------------
00003.MPLS VC-1 0:14:38 1032732672 21493420918 9,40 8,70 DD AC3 2.0 192Kbps
DISC INFO:

Disc Title: PERFORMERS_OF_THE_YEAR_2012_D2
Disc Size: 21493420918 bytes
Protection: AACS
BD-Java: No
BDInfo: 0.5.8

PLAYLIST REPORT:

Name: 00003.MPLS
Length: 0:14:38.844 (h:m:s.ms)
Size: 1032732672 bytes
Total Bitrate: 9,40 Mbps

VIDEO:

Codec Bitrate Description
----- ------- -----------
VC-1 Video 8704 kbps 1080i / 29,970 fps / 16:9 / Advanced Profile 3

AUDIO:

Codec Language Bitrate Description
----- -------- ------- -----------
Dolby Digital Audio English 192 kbps 2.0 / 48 kHz / 192 kbps / DN -4dB

FILES:

Name Time In Length Size Total Bitrate
---- ------- ------ ---- -------------
00002.M2TS 0:00:00.000 0:14:37.843 1032695808 9411
00015.M2TS 0:14:37.843 0:00:01.000 36864 295

CHAPTERS:

Number Time In Length Avg Video Rate Max 1-Sec Rate Max 1-Sec Time Max 5-Sec Rate Max 5-Sec Time Max 10Sec Rate Max 10Sec Time Avg Frame Size Max Frame Size Max Frame Time
------ ------- ------ -------------- -------------- -------------- -------------- -------------- -------------- -------------- -------------- -------------- --------------
1 0:00:00.000 0:14:37.843 8714 kbps 34630 kbps 00:05:42.308 11331 kbps 00:01:50.076 11114 kbps 00:01:48.141 36351 bytes 732636 bytes 00:02:19.139
2 0:14:37.843 0:00:01.000 87 kbps 0 kbps 00:00:00.000 0 kbps 00:00:00.000 0 kbps 00:00:00.000 389 bytes 9232 bytes 00:14:38.444

STREAM DIAGNOSTICS:

File PID Type Codec Language Seconds Bitrate Bytes Packets
---- --- ---- ----- -------- -------------- -------------- ------------- -----
00002.M2TS 4113 (0x1011) 0xEA VC-1 877,777 8715 956196972 5212045
00002.M2TS 4352 (0x1100) 0x81 AC3 eng (English) 877,777 192 21066240 137150
00015.M2TS 4113 (0x1011) 0xEA VC-1 0,901 179 20111 130
<---- END FORUMS PASTE ---->

QUICK SUMMARY:

Disc Title: PERFORMERS_OF_THE_YEAR_2012_D2
Disc Size: 21493420918 bytes
Protection: AACS
BD-Java: No
Playlist: 00003.MPLS
Size: 1032732672 bytes
Length: 0:14:38.844
Total Bitrate: 9,40 Mbps
Video: VC-1 Video / 8704 kbps / 1080i / 29,970 fps / 16:9 / Advanced Profile 3
Audio: English / Dolby Digital Audio / 2.0 / 48 kHz / 192 kbps / DN -4dB

********************
PLAYLIST: 00013.MPLS
********************

<--- BEGIN FORUMS PASTE --->
Total Video
Title Codec Length Movie Size Disc Size Bitrate Bitrate Main Audio Track Secondary Audio Track
----- ------ ------- -------------- -------------- ------- ------- ------------------ ---------------------
00013.MPLS VC-1 0:03:28 278448960 21493420918 10,67 9,90 DD AC3 2.0 192Kbps
DISC INFO:

Disc Title: PERFORMERS_OF_THE_YEAR_2012_D2
Disc Size: 21493420918 bytes
Protection: AACS
BD-Java: No
BDInfo: 0.5.8

PLAYLIST REPORT:

Name: 00013.MPLS
Length: 0:03:28.841 (h:m:s.ms)
Size: 278448960 bytes
Total Bitrate: 10,67 Mbps

VIDEO:

Codec Bitrate Description
----- ------- -----------
VC-1 Video 9902 kbps 1080i / 29,970 fps / 16:9 / Advanced Profile 3

AUDIO:

Codec Language Bitrate Description
----- -------- ------- -----------
Dolby Digital Audio English 192 kbps 2.0 / 48 kHz / 192 kbps / DN -4dB

FILES:

Name Time In Length Size Total Bitrate
---- ------- ------ ---- -------------
00016.M2TS 0:00:00.000 0:03:27.840 278412096 10716
00015.M2TS 0:03:27.840 0:00:01.000 36864 295

CHAPTERS:

Number Time In Length Avg Video Rate Max 1-Sec Rate Max 1-Sec Time Max 5-Sec Rate Max 5-Sec Time Max 10Sec Rate Max 10Sec Time Avg Frame Size Max Frame Size Max Frame Time
------ ------- ------ -------------- -------------- -------------- -------------- -------------- -------------- -------------- -------------- -------------- --------------
1 0:00:00.000 0:00:35.535 9623 kbps 14138 kbps 00:00:02.369 11702 kbps 00:00:02.502 11199 kbps 00:00:02.202 41261 bytes 147849 bytes 00:00:05.004
2 0:00:35.535 0:00:31.398 9847 kbps 15075 kbps 00:00:35.869 12013 kbps 00:00:35.869 10903 kbps 00:00:35.869 42895 bytes 120118 bytes 00:00:51.384
3 0:01:06.933 0:00:29.095 10322 kbps 14890 kbps 00:01:07.167 11696 kbps 00:01:07.333 11453 kbps 00:01:21.714 43806 bytes 142172 bytes 00:01:21.748
4 0:01:36.029 0:00:26.092 9987 kbps 16803 kbps 00:01:39.799 11962 kbps 00:01:39.799 11616 kbps 00:01:39.799 43722 bytes 150775 bytes 00:01:49.109
5 0:02:02.121 0:00:30.897 10243 kbps 18563 kbps 00:02:13.099 12785 kbps 00:02:12.599 11686 kbps 00:02:08.495 45107 bytes 171950 bytes 00:02:09.229
6 0:02:33.019 0:00:34.434 9686 kbps 17289 kbps 00:02:46.599 12101 kbps 00:02:46.633 11328 kbps 00:02:46.799 41609 bytes 168640 bytes 00:02:46.833
7 0:03:07.453 0:00:20.387 10089 kbps 18674 kbps 00:03:20.133 12912 kbps 00:03:19.432 11827 kbps 00:03:14.427 43430 bytes 138751 bytes 00:03:23.202
8 0:03:27.840 0:00:01.000 87 kbps 0 kbps 00:00:00.000 0 kbps 00:00:00.000 0 kbps 00:00:00.000 389 bytes 9232 bytes 00:03:28.441

STREAM DIAGNOSTICS:

File PID Type Codec Language Seconds Bitrate Bytes Packets
---- --- ---- ----- -------- -------------- -------------- ------------- -----
00016.M2TS 4113 (0x1011) 0xEA VC-1 207,774 9952 258462566 1411034
00016.M2TS 4352 (0x1100) 0x81 AC3 eng (English) 207,774 189 4899072 31899
00015.M2TS 4113 (0x1011) 0xEA VC-1 0,901 179 20111 130
<---- END FORUMS PASTE ---->

QUICK SUMMARY:

Disc Title: PERFORMERS_OF_THE_YEAR_2012_D2
Disc Size: 21493420918 bytes
Protection: AACS
BD-Java: No
Playlist: 00013.MPLS
Size: 278448960 bytes
Length: 0:03:28.841
Total Bitrate: 10,67 Mbps
Video: VC-1 Video / 9902 kbps / 1080i / 29,970 fps / 16:9 / Advanced Profile 3
Audio: English / Dolby Digital Audio / 2.0 / 48 kHz / 192 kbps / DN -4dB
PERFORMERS_OF_THE_YEAR_2012_D1
General #0
ID : 0 (0x0)
Complete name : PERFORMERS_OF_THE_YEAR_2012_D1\BDMV\STREAM\00000.m2ts
Format : BDAV
Format/Info : Blu-ray Video
File size : 18.3 GiB
Duration : 3h 15mn
Overall bit rate : 13.4 Mbps
Maximum Overall bit rate : 48.0 Mbps
Video #4113
ID : 4113 (0x1011)
Menu ID : 1 (0x1)
Format : VC-1
Format profile : AP@L3
Codec ID : 234
Duration : 3h 15mn
Bit rate : 12.6 Mbps
Width : 1 920 pixels
Height : 1 080 pixels
Display aspect ratio : 16:9
Frame rate : 23.976 fps
Chroma subsampling : 4:2:0
Bit depth : 8 bits
Scan type : Progressive
Compression mode : Lossy
Bits/(Pixel*Frame) : 0.254
Stream size : 17.2 GiB (94%)
Audio #4352
ID : 4352 (0x1100)
Menu ID : 1 (0x1)
Format : AC-3
Format/Info : Audio Coding 3
Mode extension : CM (complete main)
Codec ID : 129
Duration : 3h 15mn
Bit rate mode : Constant
Bit rate : 256 Kbps
Channel(s) : 2 channels
Channel positions : Front: L R
Sampling rate : 48.0 KHz
Bit depth : 16 bits
Compression mode : Lossy
Stream size : 358 MiB (2%)

PERFORMERS_OF_THE_YEAR_2012_D2
General #0
ID : 0 (0x0)
Complete name : PERFORMERS_OF_THE_YEAR_2012_D2\BDMV\STREAM\00000.m2ts
Format : BDAV
Format/Info : Blu-ray Video
File size : 5.94 GiB
Duration : 1h 11mn
Overall bit rate : 11.9 Mbps
Maximum Overall bit rate : 48.0 Mbps
Video #4113
ID : 4113 (0x1011)
Menu ID : 1 (0x1)
Format : VC-1
Format profile : AP@L3
Codec ID : 234
Duration : 1h 11mn
Bit rate : 11.1 Mbps
Width : 1 920 pixels
Height : 1 080 pixels
Display aspect ratio : 16:9
Frame rate : 23.976 fps
Chroma subsampling : 4:2:0
Bit depth : 8 bits
Scan type : Progressive
Compression mode : Lossy
Bits/(Pixel*Frame) : 0.224
Stream size : 5.57 GiB (94%)
Audio #4352
ID : 4352 (0x1100)
Menu ID : 1 (0x1)
Format : AC-3
Format/Info : Audio Coding 3
Mode extension : CM (complete main)
Codec ID : 129
Duration : 1h 11mn
Bit rate mode : Constant
Bit rate : 256 Kbps
Channel(s) : 2 channels
Channel positions : Front: L R
Sampling rate : 48.0 KHz
Bit depth : 16 bits
Compression mode : Lossy
Stream size : 131 MiB (2%)


 ·  , , FAQ-
:  [ 13--2013 14:38 ]

  

.torrent

.torrent 201 KB


: 38.38 GB
(hash) : 6a8aed9766d231b9065463964830bdc65f47b6dc
··
...

, Performers of the Year 2012 2012

S L
·· Performers of the Year 2012 / 2012 (William H., Elegant Angel) [2012 ., Anal, Gonzo, WEB-DL] (Asa Akira, Bobbi Starr, Gracie Glam, Jayden Jaymes, Kagney Linn Karter, Kristina Rose, Lexi Belle) [Split Scenes] [540p] LinGr 40296287383.75 GB 0 0 1365239639

12:13

6--13

·· Performers of the Year 2012 / 2012 (William H., Elegant Angel) [2012 ., Anal, Gonzo, WEB-DL] (Asa Akira, Bobbi Starr, Gracie Glam, Jayden Jaymes, Kagney Linn Karter, Kristina Rose, Lexi Belle) [Split Scenes] [720p] LinGr 68873044986.41 GB 0 0 1365238979

12:02

6--13

·· Performers of the Year 2012 / 2012 (William H., Elegant Angel) [2012 ., Anal, Gonzo, WEB-DL] (Asa Akira, Bobbi Starr, Gracie Glam, Jayden Jaymes, Kagney Linn Karter, Kristina Rose, Lexi Belle) [Split Scenes] [1080p] LinGr 1546912731014.41 GB 0 0 1365238975

12:02

6--13

- ·· Performers Of The Year 2012 / 2012 . (William H., Elegant Angel) [2011, Gonzo, Anal, DVDRip] (Lexi Belle, Bobbi Starr, Kristina Rose, Kagney Linn Karter, Gracie Glam, Asa Akira) Release Date: Jan 11, 2012! Galfimbul 21960601602.05 GB 0 0 1364382828

14:13

27--13

·· Performers Of The Year 2013 / 2013 (William H., Elegant Angel) [2012 ., Anal, DP, DAP, Group Sex, Hardcore, 1080p, BD Remux] Galfimbul 1923897854517.92 GB 0 0 1387700292

11:18

22--13

- ·· Performers Of The Year 2013 / 2013 (William H., Elegant Angel) [2012 ., Anal, Gonzo, DP, WEB-DL] (Asa Akira, Brooklyn Lee, Jada Stevens, Lexi Belle, Lily Carter, Skin Diamond) [Split Scenes] [540p] LinGr 31158949602.9 GB 0 0 1364382958

14:15

27--13

Performers of the Year 2012 2012 . !

!