Скачать порно через торрент The Demons Kingdom -Girls from the dead world- UnionPeer.org бесплатно онлайн HD качество

Скачать новое порно 2015, 2014 новинки через торрент UnionPeer.org

Порно торрент бесплатно ЮнионПир.орг

Если у вас наблюдаются проблемы со скриншотами, переходом по ссылками, скачиванием торрентов - проблемы в блокировщике рекламы AdBlock. #хорошегоДня!


Статистика раздачи
Размер:  1.02 GB   |    Зарегистрирован:  3 года 10 месяцев   |    .torrent скачан:  370 раз   |   
Раздают:  1  
   
Загрузка...
 
Автор Сообщение

LinGr

avatar LinGr


The Demon's Kingdom -Girls from the dead world- / ~亡国の女達~
Год производства: 2013 г.
2013/04/29
Жанр: Internal Cumshot, Violation, Pervert
Серии: 1-2
Продолжительность: 53:54 ; 30:58
Цензура: Есть во всех файлах

Язык: Японский
Озвучка: Оригинальная
Студия: Osanagocoronokimini (幼心の君に) | DLLsite


Описание:
Attacked by demons, the whole country became full of zombies.
The protagonist violates various women from young to old in this world
Качество видео: GameRip
Формат видео: WMV
Видео кодек: Windows Media
Аудио кодек: WMA
Видео: Windows Media Video 9 1280x720 30fps 1600kbps
Аудио 1: WMA 2 44100Hz stereo 128kbps
ID : 2
Format : VC-1
Format profile : MP@HL
Codec ID : WMV3
Codec ID/Info : Windows Media Video 9
Codec ID/Hint : WMV3
Description of the codec : Windows Media Video 9 - Professional
Duration : 53mn 54s
Bit rate mode : Constant
Bit rate : 1 600 Kbps
Width : 1 280 pixels
Height : 720 pixels
Display aspect ratio : 16:9
Frame rate : 30.000 fps
Bit depth : 8 bits
Scan type : Progressive
Compression mode : Lossy
Bits/(Pixel*Frame) : 0.058
Stream size : 617 MiB (93%)
Language : Russian

Audio
ID : 1
Format : WMA
Format version : Version 2
Codec ID : 161
Codec ID/Info : Windows Media Audio
Description of the codec : Windows Media Audio 9.2 - 128 kbps, 44 kHz, stereo (A/V) 1-pass CBR
Duration : 53mn 54s
Bit rate mode : Constant
Bit rate : 128 Kbps
Channel(s) : 2 channels
Sampling rate : 44.1 KHz
Bit depth : 16 bits
Stream size : 49.4 MiB (7%)
ID : 2
Format : VC-1
Format profile : MP@HL
Codec ID : WMV3
Codec ID/Info : Windows Media Video 9
Codec ID/Hint : WMV3
Description of the codec : Windows Media Video 9 - Professional
Duration : 30mn 58s
Bit rate mode : Constant
Bit rate : 1 600 Kbps
Width : 1 280 pixels
Height : 720 pixels
Display aspect ratio : 16:9
Frame rate : 30.000 fps
Bit depth : 8 bits
Scan type : Progressive
Compression mode : Lossy
Bits/(Pixel*Frame) : 0.058
Stream size : 354 MiB (93%)
Language : Russian

Audio
ID : 1
Format : WMA
Format version : Version 2
Codec ID : 161
Codec ID/Info : Windows Media Audio
Description of the codec : Windows Media Audio 9.2 - 128 kbps, 44 kHz, stereo (A/V) 1-pass CBR
Duration : 30mn 58s
Bit rate mode : Constant
Bit rate : 128 Kbps
Channel(s) : 2 channels
Sampling rate : 44.1 KHz
Bit depth : 16 bits
Stream size : 28.4 MiB (7%)


Трекер:  [ 12-Окт-2013 12:16 ]

  

Скачать .torrent

Размер .torrent файла 11 KB


Размер: 1.02 GB
Хэш (hash) релиза: 4302a831d11c5c020c8e3e87b779d6c1b89b10c9

bot

Топик был перенесен в форум Хентай | С цензурой

Перенес LinGr

Хотите добавить комментарий к записи скачать торрент The Demons Kingdom -Girls from the dead world-

!Обратная связь