Slut Puppies 3 3 UnionPeer.org HD

2015, 2014 UnionPeer.org

.

, , - AdBlock. #!


22.29 GB   |    :  4 1    |    .torrent :  211    |   
1  
   
...
 

LinGr

avatar LinGr


Slut Puppies 3 3

: 2009 .
: United States
: All Sex, Gonzo, Anal
: 03:18:08

: Jules Jordan
: Jules Jordan Video

:
: Allyssa Hall, Andi Anderson, Ashley Jensen, Dakoda Brookes, Kagney Linn Karter, Lexi Belle. Ben English, Criss Strokes, James Deen, Jerry, Jules Jordan, Mr. Marcus, Voodoo

: Andi feels the dark powerup her ass!
Poor Dakoda needs to be stuffed with cock! We oblige and give her the DP of her life!
Teen of the Year award winner Allyssa loves to cum!
Kagney poolsidebaby oilcocknuff said!
Roller skater Lexi stumbles into the porno warehousewhere (of course) theres cock!
Ashley Jensen is so hotshe could be the next teen idol! Consider this her audition!

:
. :
* Interactive Menus
* Chapter Selection
* Photo Gallery
* Trailers

HD : 1080i
: Blu-Ray
: Blu-Ray Video
: BDMV
: H.264/AVC
: AC3
: MPEG-4 AVC Video / ~14200 Mbps / 1440x1080i / 29,970 fps / 16:9
: Dolby Digital Audio 2.0 / 48000 Hz / 192 kbps
Disc Title: Slut Puppies 3 1080i Blu-ray DD2.0 -TrollHD XXX
Disc Size: 23931121712 bytes
Protection: AACS
BD-Java: Yes
BDInfo: 0.5.8

********************
PLAYLIST: 00002.MPLS
********************

<--- BEGIN FORUMS PASTE --->
Total Video
Title Codec Length Movie Size Disc Size Bitrate Bitrate Main Audio Track Secondary Audio Track
----- ------ ------- -------------- -------------- ------- ------- ------------------ ---------------------
00002.MPLS AVC 3:18:08 22569547776 23931121712 15,19 14,23 DD AC3 2.0 192Kbps
DISC INFO:

Disc Title: Slut Puppies 3 1080i Blu-ray DD2.0 -TrollHD XXX
Disc Size: 23931121712 bytes
Protection: AACS
BD-Java: Yes
BDInfo: 0.5.8

PLAYLIST REPORT:

Name: 00002.MPLS
Length: 3:18:08.943 (h:m:s.ms)
Size: 22569547776 bytes
Total Bitrate: 15,19 Mbps

VIDEO:

Codec Bitrate Description
----- ------- -----------
MPEG-4 AVC Video 14233 kbps 1080i / 29,970 fps / 16:9 / High Profile 4.1

AUDIO:

Codec Language Bitrate Description
----- -------- ------- -----------
Dolby Digital Audio Undetermined 192 kbps 2.0 / 48 kHz / 192 kbps / DN -4dB

FILES:

Name Time In Length Size Total Bitrate
---- ------- ------ ---- -------------
00002.M2TS 0:00:00.000 3:18:08.943 22569547776 15187

CHAPTERS:

Number Time In Length Avg Video Rate Max 1-Sec Rate Max 1-Sec Time Max 5-Sec Rate Max 5-Sec Time Max 10Sec Rate Max 10Sec Time Avg Frame Size Max Frame Size Max Frame Time
------ ------- ------ -------------- -------------- -------------- -------------- -------------- -------------- -------------- -------------- -------------- --------------
1 0:00:00.000 0:08:11.724 14154 kbps 37205 kbps 00:00:02.635 20704 kbps 00:00:02.435 19018 kbps 00:00:02.469 59030 bytes 298180 bytes 00:00:02.902
2 0:08:11.724 0:06:38.264 14338 kbps 28628 kbps 00:08:13.693 22766 kbps 00:08:13.693 20002 kbps 00:08:13.059 59800 bytes 197577 bytes 00:08:13.993
3 0:14:49.989 0:04:34.040 14251 kbps 19001 kbps 00:19:04.176 15764 kbps 00:16:31.523 14968 kbps 00:16:43.969 59439 bytes 185574 bytes 00:15:18.350
4 0:19:24.029 0:02:40.560 14222 kbps 20150 kbps 00:22:03.555 16130 kbps 00:20:47.546 15337 kbps 00:20:46.678 59331 bytes 193320 bytes 00:22:03.588
5 0:22:04.589 0:04:56.062 14225 kbps 19221 kbps 00:22:54.139 15849 kbps 00:25:18.617 15273 kbps 00:25:13.512 59329 bytes 167236 bytes 00:23:12.657
6 0:27:00.652 0:03:00.213 14247 kbps 19787 kbps 00:28:53.932 17030 kbps 00:28:52.864 15455 kbps 00:28:50.562 59424 bytes 190194 bytes 00:28:24.903
7 0:30:00.865 0:02:03.189 14222 kbps 15989 kbps 00:30:44.108 14933 kbps 00:31:20.979 14558 kbps 00:31:19.978 59317 bytes 138485 bytes 00:31:47.472
8 0:32:04.055 0:01:13.440 14043 kbps 17973 kbps 00:32:26.311 15124 kbps 00:32:25.843 14726 kbps 00:32:26.044 58572 bytes 151504 bytes 00:32:28.513
9 0:33:17.495 0:03:53.866 14330 kbps 37298 kbps 00:33:29.874 25409 kbps 00:33:26.204 21741 kbps 00:33:23.401 59768 bytes 210271 bytes 00:33:30.174
10 0:37:11.362 0:06:41.801 14220 kbps 19141 kbps 00:37:34.619 16049 kbps 00:38:04.348 15157 kbps 00:40:33.831 59314 bytes 181013 bytes 00:38:06.817
11 0:43:53.163 0:04:15.622 14242 kbps 17886 kbps 00:45:51.448 15599 kbps 00:45:31.628 14926 kbps 00:44:57.094 59402 bytes 168786 bytes 00:44:22.526
12 0:48:08.785 0:04:50.690 14222 kbps 18682 kbps 00:52:47.230 15537 kbps 00:51:28.952 14940 kbps 00:52:47.264 59316 bytes 155736 bytes 00:51:38.462
13 0:52:59.476 0:07:34.487 14246 kbps 19070 kbps 00:56:53.143 16248 kbps 00:58:11.354 15432 kbps 00:58:48.157 59422 bytes 190675 bytes 00:55:09.706
14 1:00:33.963 0:01:53.480 13976 kbps 17450 kbps 01:01:11.167 15308 kbps 01:01:50.206 14733 kbps 01:01:11.034 58290 bytes 173921 bytes 01:01:53.509
15 1:02:27.443 0:08:08.988 14285 kbps 27813 kbps 01:02:37.353 26147 kbps 01:02:35.518 20982 kbps 01:02:34.016 59586 bytes 216608 bytes 01:02:39.555
16 1:10:36.432 0:05:12.645 14240 kbps 17574 kbps 01:15:31.593 15309 kbps 01:15:29.124 14974 kbps 01:15:30.659 59394 bytes 170846 bytes 01:12:50.165
17 1:15:49.077 0:07:02.722 14235 kbps 17159 kbps 01:15:55.584 15671 kbps 01:22:17.032 14935 kbps 01:22:12.627 59373 bytes 159212 bytes 01:19:09.945
18 1:22:51.800 0:06:32.024 14236 kbps 17270 kbps 01:25:37.999 15210 kbps 01:25:13.174 14748 kbps 01:24:29.798 59375 bytes 139740 bytes 01:27:48.630
19 1:29:23.825 0:01:24.684 13991 kbps 16187 kbps 01:30:45.606 14851 kbps 01:30:41.602 14738 kbps 01:30:27.088 58353 bytes 141097 bytes 01:30:34.796
20 1:30:48.509 0:05:38.871 14282 kbps 43865 kbps 01:30:49.510 24797 kbps 01:30:49.510 18070 kbps 01:30:49.510 59568 bytes 696409 bytes 01:30:49.644
21 1:36:27.381 0:04:12.685 14246 kbps 16494 kbps 01:39:02.369 15232 kbps 01:39:01.969 14653 kbps 01:39:27.995 59417 bytes 136927 bytes 01:37:22.937
22 1:40:40.067 0:03:05.685 14245 kbps 17200 kbps 01:43:44.218 14901 kbps 01:42:36.984 14618 kbps 01:42:34.882 59413 bytes 149526 bytes 01:42:27.174
23 1:43:45.752 0:06:11.170 14232 kbps 16171 kbps 01:48:49.256 14995 kbps 01:44:38.305 14606 kbps 01:48:31.338 59365 bytes 147925 bytes 01:45:27.854
24 1:49:56.923 0:06:19.979 14230 kbps 17207 kbps 01:53:00.740 15055 kbps 01:56:01.688 14636 kbps 01:55:56.783 59350 bytes 154539 bytes 01:53:52.859
25 1:56:16.903 0:09:50.590 14238 kbps 20272 kbps 02:02:53.366 16090 kbps 02:02:53.065 15214 kbps 02:02:49.462 59385 bytes 170206 bytes 02:02:53.833
26 2:06:07.493 0:02:53.706 14117 kbps 16965 kbps 02:08:38.477 15026 kbps 02:08:38.677 14837 kbps 02:08:35.474 58878 bytes 167679 bytes 02:08:56.695
27 2:09:01.200 0:08:40.453 14277 kbps 37281 kbps 02:09:03.035 20828 kbps 02:09:02.534 17680 kbps 02:09:02.534 59547 bytes 232940 bytes 02:09:03.202
28 2:17:41.653 0:10:44.543 14228 kbps 17563 kbps 02:22:16.294 15400 kbps 02:25:55.880 14821 kbps 02:19:38.503 59341 bytes 147557 bytes 02:20:19.544
29 2:28:26.197 0:07:21.974 14237 kbps 17624 kbps 02:30:09.133 15317 kbps 02:30:08.632 14863 kbps 02:31:15.566 59379 bytes 133916 bytes 02:30:10.134
30 2:35:48.172 0:06:34.560 14237 kbps 17636 kbps 02:37:13.657 15469 kbps 02:37:12.656 15140 kbps 02:41:28.478 59381 bytes 142590 bytes 02:38:44.515
31 2:42:22.733 0:05:42.809 14118 kbps 17052 kbps 02:44:19.950 15225 kbps 02:44:19.616 14693 kbps 02:44:19.850 58882 bytes 129971 bytes 02:47:52.328
32 2:48:05.542 0:03:42.755 14405 kbps 31254 kbps 02:48:24.661 22464 kbps 02:48:22.859 18363 kbps 02:48:19.556 60081 bytes 194827 bytes 02:48:24.861
33 2:51:48.298 0:05:57.256 14253 kbps 17200 kbps 02:52:27.637 15392 kbps 02:52:51.427 14882 kbps 02:57:35.077 59445 bytes 152036 bytes 02:55:11.267
34 2:57:45.554 0:06:54.147 14213 kbps 21271 kbps 03:00:23.646 16766 kbps 03:01:01.183 15668 kbps 03:01:01.183 59280 bytes 138626 bytes 03:01:03.185
35 3:04:39.701 0:03:15.695 14243 kbps 16868 kbps 03:05:32.087 15477 kbps 03:06:21.503 15079 kbps 03:06:19.501 59407 bytes 127948 bytes 03:05:33.055
36 3:07:55.397 0:04:28.701 14209 kbps 18040 kbps 03:09:41.136 16522 kbps 03:11:00.816 15493 kbps 03:11:00.816 59262 bytes 143541 bytes 03:10:06.828
37 3:12:24.099 0:04:56.195 14108 kbps 21480 kbps 03:15:03.825 16666 kbps 03:15:03.758 15357 kbps 03:12:24.299 58841 bytes 162182 bytes 03:15:04.159
38 3:17:20.295 0:00:48.648 14719 kbps 35884 kbps 03:17:20.962 22803 kbps 03:17:20.929 19716 kbps 03:17:20.595 61431 bytes 280657 bytes 03:17:25.733

STREAM DIAGNOSTICS:

File PID Type Codec Language Seconds Bitrate Bytes Packets
---- --- ---- ----- -------- -------------- -------------- ------------- -----
00002.M2TS 4113 (0x1011) 0x1B AVC 11888,877 14233 21151774508 115163782
00002.M2TS 4352 (0x1100) 0x81 AC3 und (Undetermined) 11888,877 192 285334272 1857649
<---- END FORUMS PASTE ---->

QUICK SUMMARY:

Disc Title: Slut Puppies 3 1080i Blu-ray DD2.0 -TrollHD XXX
Disc Size: 23931121712 bytes
Protection: AACS
BD-Java: Yes
Playlist: 00002.MPLS
Size: 22569547776 bytes
Length: 3:18:08.943
Total Bitrate: 15,19 Mbps
Video: MPEG-4 AVC Video / 14233 kbps / 1080i / 29,970 fps / 16:9 / High Profile 4.1
Audio: Undetermined / Dolby Digital Audio / 2.0 / 48 kHz / 192 kbps / DN -4dB

********************
PLAYLIST: 01002.MPLS
********************

<--- BEGIN FORUMS PASTE --->
Total Video
Title Codec Length Movie Size Disc Size Bitrate Bitrate Main Audio Track Secondary Audio Track
----- ------ ------- -------------- -------------- ------- ------- ------------------ ---------------------
01002.MPLS AVC 3:18:08 22569547776 23931121712 15,19 14,23 DD AC3 2.0 192Kbps
DISC INFO:

Disc Title: Slut Puppies 3 1080i Blu-ray DD2.0 -TrollHD XXX
Disc Size: 23931121712 bytes
Protection: AACS
BD-Java: Yes
BDInfo: 0.5.8

PLAYLIST REPORT:

Name: 01002.MPLS
Length: 3:18:08.943 (h:m:s.ms)
Size: 22569547776 bytes
Total Bitrate: 15,19 Mbps

VIDEO:

Codec Bitrate Description
----- ------- -----------
MPEG-4 AVC Video 14233 kbps 1080i / 29,970 fps / 16:9 / High Profile 4.1

AUDIO:

Codec Language Bitrate Description
----- -------- ------- -----------
Dolby Digital Audio Undetermined 192 kbps 2.0 / 48 kHz / 192 kbps / DN -4dB

FILES:

Name Time In Length Size Total Bitrate
---- ------- ------ ---- -------------
00002.M2TS 0:00:00.000 3:18:08.943 22569547776 15187

CHAPTERS:

Number Time In Length Avg Video Rate Max 1-Sec Rate Max 1-Sec Time Max 5-Sec Rate Max 5-Sec Time Max 10Sec Rate Max 10Sec Time Avg Frame Size Max Frame Size Max Frame Time
------ ------- ------ -------------- -------------- -------------- -------------- -------------- -------------- -------------- -------------- -------------- --------------
1 0:00:00.000 0:08:11.724 14154 kbps 37205 kbps 00:00:02.635 20704 kbps 00:00:02.435 19018 kbps 00:00:02.469 59030 bytes 298180 bytes 00:00:02.902
2 0:08:11.724 0:06:38.264 14338 kbps 28628 kbps 00:08:13.693 22766 kbps 00:08:13.693 20002 kbps 00:08:13.059 59800 bytes 197577 bytes 00:08:13.993
3 0:14:49.989 0:04:34.040 14251 kbps 19001 kbps 00:19:04.176 15764 kbps 00:16:31.523 14968 kbps 00:16:43.969 59439 bytes 185574 bytes 00:15:18.350
4 0:19:24.029 0:02:40.560 14222 kbps 20150 kbps 00:22:03.555 16130 kbps 00:20:47.546 15337 kbps 00:20:46.678 59331 bytes 193320 bytes 00:22:03.588
5 0:22:04.589 0:04:56.062 14225 kbps 19221 kbps 00:22:54.139 15849 kbps 00:25:18.617 15273 kbps 00:25:13.512 59329 bytes 167236 bytes 00:23:12.657
6 0:27:00.652 0:03:00.213 14247 kbps 19787 kbps 00:28:53.932 17030 kbps 00:28:52.864 15455 kbps 00:28:50.562 59424 bytes 190194 bytes 00:28:24.903
7 0:30:00.865 0:02:03.189 14222 kbps 15989 kbps 00:30:44.108 14933 kbps 00:31:20.979 14558 kbps 00:31:19.978 59317 bytes 138485 bytes 00:31:47.472
8 0:32:04.055 0:01:13.440 14043 kbps 17973 kbps 00:32:26.311 15124 kbps 00:32:25.843 14726 kbps 00:32:26.044 58572 bytes 151504 bytes 00:32:28.513
9 0:33:17.495 0:03:53.866 14330 kbps 37298 kbps 00:33:29.874 25409 kbps 00:33:26.204 21741 kbps 00:33:23.401 59768 bytes 210271 bytes 00:33:30.174
10 0:37:11.362 0:06:41.801 14220 kbps 19141 kbps 00:37:34.619 16049 kbps 00:38:04.348 15157 kbps 00:40:33.831 59314 bytes 181013 bytes 00:38:06.817
11 0:43:53.163 0:04:15.622 14242 kbps 17886 kbps 00:45:51.448 15599 kbps 00:45:31.628 14926 kbps 00:44:57.094 59402 bytes 168786 bytes 00:44:22.526
12 0:48:08.785 0:04:50.690 14222 kbps 18682 kbps 00:52:47.230 15537 kbps 00:51:28.952 14940 kbps 00:52:47.264 59316 bytes 155736 bytes 00:51:38.462
13 0:52:59.476 0:07:34.487 14246 kbps 19070 kbps 00:56:53.143 16248 kbps 00:58:11.354 15432 kbps 00:58:48.157 59422 bytes 190675 bytes 00:55:09.706
14 1:00:33.963 0:01:53.480 13976 kbps 17450 kbps 01:01:11.167 15308 kbps 01:01:50.206 14733 kbps 01:01:11.034 58290 bytes 173921 bytes 01:01:53.509
15 1:02:27.443 0:08:08.988 14285 kbps 27813 kbps 01:02:37.353 26147 kbps 01:02:35.518 20982 kbps 01:02:34.016 59586 bytes 216608 bytes 01:02:39.555
16 1:10:36.432 0:05:12.645 14240 kbps 17574 kbps 01:15:31.593 15309 kbps 01:15:29.124 14974 kbps 01:15:30.659 59394 bytes 170846 bytes 01:12:50.165
17 1:15:49.077 0:07:02.722 14235 kbps 17159 kbps 01:15:55.584 15671 kbps 01:22:17.032 14935 kbps 01:22:12.627 59373 bytes 159212 bytes 01:19:09.945
18 1:22:51.800 0:06:32.024 14236 kbps 17270 kbps 01:25:37.999 15210 kbps 01:25:13.174 14748 kbps 01:24:29.798 59375 bytes 139740 bytes 01:27:48.630
19 1:29:23.825 0:01:24.684 13991 kbps 16187 kbps 01:30:45.606 14851 kbps 01:30:41.602 14738 kbps 01:30:27.088 58353 bytes 141097 bytes 01:30:34.796
20 1:30:48.509 0:05:38.871 14282 kbps 43865 kbps 01:30:49.510 24797 kbps 01:30:49.510 18070 kbps 01:30:49.510 59568 bytes 696409 bytes 01:30:49.644
21 1:36:27.381 0:04:12.685 14246 kbps 16494 kbps 01:39:02.369 15232 kbps 01:39:01.969 14653 kbps 01:39:27.995 59417 bytes 136927 bytes 01:37:22.937
22 1:40:40.067 0:03:05.685 14245 kbps 17200 kbps 01:43:44.218 14901 kbps 01:42:36.984 14618 kbps 01:42:34.882 59413 bytes 149526 bytes 01:42:27.174
23 1:43:45.752 0:06:11.170 14232 kbps 16171 kbps 01:48:49.256 14995 kbps 01:44:38.305 14606 kbps 01:48:31.338 59365 bytes 147925 bytes 01:45:27.854
24 1:49:56.923 0:06:19.979 14230 kbps 17207 kbps 01:53:00.740 15055 kbps 01:56:01.688 14636 kbps 01:55:56.783 59350 bytes 154539 bytes 01:53:52.859
25 1:56:16.903 0:09:50.590 14238 kbps 20272 kbps 02:02:53.366 16090 kbps 02:02:53.065 15214 kbps 02:02:49.462 59385 bytes 170206 bytes 02:02:53.833
26 2:06:07.493 0:02:53.706 14117 kbps 16965 kbps 02:08:38.477 15026 kbps 02:08:38.677 14837 kbps 02:08:35.474 58878 bytes 167679 bytes 02:08:56.695
27 2:09:01.200 0:08:40.453 14277 kbps 37281 kbps 02:09:03.035 20828 kbps 02:09:02.534 17680 kbps 02:09:02.534 59547 bytes 232940 bytes 02:09:03.202
28 2:17:41.653 0:10:44.543 14228 kbps 17563 kbps 02:22:16.294 15400 kbps 02:25:55.880 14821 kbps 02:19:38.503 59341 bytes 147557 bytes 02:20:19.544
29 2:28:26.197 0:07:21.974 14237 kbps 17624 kbps 02:30:09.133 15317 kbps 02:30:08.632 14863 kbps 02:31:15.566 59379 bytes 133916 bytes 02:30:10.134
30 2:35:48.172 0:06:34.560 14237 kbps 17636 kbps 02:37:13.657 15469 kbps 02:37:12.656 15140 kbps 02:41:28.478 59381 bytes 142590 bytes 02:38:44.515
31 2:42:22.733 0:05:42.809 14118 kbps 17052 kbps 02:44:19.950 15225 kbps 02:44:19.616 14693 kbps 02:44:19.850 58882 bytes 129971 bytes 02:47:52.328
32 2:48:05.542 0:03:42.755 14405 kbps 31254 kbps 02:48:24.661 22464 kbps 02:48:22.859 18363 kbps 02:48:19.556 60081 bytes 194827 bytes 02:48:24.861
33 2:51:48.298 0:05:57.256 14253 kbps 17200 kbps 02:52:27.637 15392 kbps 02:52:51.427 14882 kbps 02:57:35.077 59445 bytes 152036 bytes 02:55:11.267
34 2:57:45.554 0:06:54.147 14213 kbps 21271 kbps 03:00:23.646 16766 kbps 03:01:01.183 15668 kbps 03:01:01.183 59280 bytes 138626 bytes 03:01:03.185
35 3:04:39.701 0:03:15.695 14243 kbps 16868 kbps 03:05:32.087 15477 kbps 03:06:21.503 15079 kbps 03:06:19.501 59407 bytes 127948 bytes 03:05:33.055
36 3:07:55.397 0:04:28.701 14209 kbps 18040 kbps 03:09:41.136 16522 kbps 03:11:00.816 15493 kbps 03:11:00.816 59262 bytes 143541 bytes 03:10:06.828
37 3:12:24.099 0:04:56.195 14108 kbps 21480 kbps 03:15:03.825 16666 kbps 03:15:03.758 15357 kbps 03:12:24.299 58841 bytes 162182 bytes 03:15:04.159
38 3:17:20.295 0:00:48.648 14719 kbps 35884 kbps 03:17:20.962 22803 kbps 03:17:20.929 19716 kbps 03:17:20.595 61431 bytes 280657 bytes 03:17:25.733

STREAM DIAGNOSTICS:

File PID Type Codec Language Seconds Bitrate Bytes Packets
---- --- ---- ----- -------- -------------- -------------- ------------- -----
00002.M2TS 4113 (0x1011) 0x1B AVC 11888,877 14233 21151774508 115163782
00002.M2TS 4352 (0x1100) 0x81 AC3 und (Undetermined) 11888,877 192 285334272 1857649
<---- END FORUMS PASTE ---->

QUICK SUMMARY:

Disc Title: Slut Puppies 3 1080i Blu-ray DD2.0 -TrollHD XXX
Disc Size: 23931121712 bytes
Protection: AACS
BD-Java: Yes
Playlist: 01002.MPLS
Size: 22569547776 bytes
Length: 3:18:08.943
Total Bitrate: 15,19 Mbps
Video: MPEG-4 AVC Video / 14233 kbps / 1080i / 29,970 fps / 16:9 / High Profile 4.1
Audio: Undetermined / Dolby Digital Audio / 2.0 / 48 kHz / 192 kbps / DN -4dB

********************
PLAYLIST: 00004.MPLS
********************

<--- BEGIN FORUMS PASTE --->
Total Video
Title Codec Length Movie Size Disc Size Bitrate Bitrate Main Audio Track Secondary Audio Track
----- ------ ------- -------------- -------------- ------- ------- ------------------ ---------------------
00004.MPLS AVC 0:07:10 265672704 23931121712 4,94 4,64
DISC INFO:

Disc Title: Slut Puppies 3 1080i Blu-ray DD2.0 -TrollHD XXX
Disc Size: 23931121712 bytes
Protection: AACS
BD-Java: Yes
BDInfo: 0.5.8

PLAYLIST REPORT:

Name: 00004.MPLS
Length: 0:07:10.430 (h:m:s.ms)
Size: 265672704 bytes
Total Bitrate: 4,94 Mbps

VIDEO:

Codec Bitrate Description
----- ------- -----------
MPEG-4 AVC Video 4640 kbps 1080i / 29,970 fps / 16:9 / High Profile 4.1

FILES:

Name Time In Length Size Total Bitrate
---- ------- ------ ---- -------------
00004.M2TS 0:00:00.000 0:07:10.430 265672704 4938

CHAPTERS:

Number Time In Length Avg Video Rate Max 1-Sec Rate Max 1-Sec Time Max 5-Sec Rate Max 5-Sec Time Max 10Sec Rate Max 10Sec Time Avg Frame Size Max Frame Size Max Frame Time
------ ------- ------ -------------- -------------- -------------- -------------- -------------- -------------- -------------- -------------- -------------- --------------
1 0:00:00.000 0:07:10.430 4640 kbps 9500 kbps 00:01:59.652 9496 kbps 00:01:59.652 9079 kbps 00:01:54.747 19354 bytes 536113 bytes 00:02:00.120

STREAM DIAGNOSTICS:

File PID Type Codec Language Seconds Bitrate Bytes Packets
---- --- ---- ----- -------- -------------- -------------- ------------- -----
00004.M2TS 4113 (0x1011) 0x1B AVC 430,330 4641 249671111 1364608
<---- END FORUMS PASTE ---->

QUICK SUMMARY:

Disc Title: Slut Puppies 3 1080i Blu-ray DD2.0 -TrollHD XXX
Disc Size: 23931121712 bytes
Protection: AACS
BD-Java: Yes
Playlist: 00004.MPLS
Size: 265672704 bytes
Length: 0:07:10.430
Total Bitrate: 4,94 Mbps
Video: MPEG-4 AVC Video / 4640 kbps / 1080i / 29,970 fps / 16:9 / High Profile 4.1

********************
PLAYLIST: 01004.MPLS
********************

<--- BEGIN FORUMS PASTE --->
Total Video
Title Codec Length Movie Size Disc Size Bitrate Bitrate Main Audio Track Secondary Audio Track
----- ------ ------- -------------- -------------- ------- ------- ------------------ ---------------------
01004.MPLS AVC 0:07:10 265672704 23931121712 4,94 4,64
DISC INFO:

Disc Title: Slut Puppies 3 1080i Blu-ray DD2.0 -TrollHD XXX
Disc Size: 23931121712 bytes
Protection: AACS
BD-Java: Yes
BDInfo: 0.5.8

PLAYLIST REPORT:

Name: 01004.MPLS
Length: 0:07:10.430 (h:m:s.ms)
Size: 265672704 bytes
Total Bitrate: 4,94 Mbps

VIDEO:

Codec Bitrate Description
----- ------- -----------
MPEG-4 AVC Video 4640 kbps 1080i / 29,970 fps / 16:9 / High Profile 4.1

FILES:

Name Time In Length Size Total Bitrate
---- ------- ------ ---- -------------
00004.M2TS 0:00:00.000 0:07:10.430 265672704 4938

CHAPTERS:

Number Time In Length Avg Video Rate Max 1-Sec Rate Max 1-Sec Time Max 5-Sec Rate Max 5-Sec Time Max 10Sec Rate Max 10Sec Time Avg Frame Size Max Frame Size Max Frame Time
------ ------- ------ -------------- -------------- -------------- -------------- -------------- -------------- -------------- -------------- -------------- --------------
1 0:00:00.000 0:07:10.430 4640 kbps 9500 kbps 00:01:59.652 9496 kbps 00:01:59.652 9079 kbps 00:01:54.747 19354 bytes 536113 bytes 00:02:00.120

STREAM DIAGNOSTICS:

File PID Type Codec Language Seconds Bitrate Bytes Packets
---- --- ---- ----- -------- -------------- -------------- ------------- -----
00004.M2TS 4113 (0x1011) 0x1B AVC 430,330 4641 249671111 1364608
<---- END FORUMS PASTE ---->

QUICK SUMMARY:

Disc Title: Slut Puppies 3 1080i Blu-ray DD2.0 -TrollHD XXX
Disc Size: 23931121712 bytes
Protection: AACS
BD-Java: Yes
Playlist: 01004.MPLS
Size: 265672704 bytes
Length: 0:07:10.430
Total Bitrate: 4,94 Mbps
Video: MPEG-4 AVC Video / 4640 kbps / 1080i / 29,970 fps / 16:9 / High Profile 4.1

********************
PLAYLIST: 00003.MPLS
********************

<--- BEGIN FORUMS PASTE --->
Total Video
Title Codec Length Movie Size Disc Size Bitrate Bitrate Main Audio Track Secondary Audio Track
----- ------ ------- -------------- -------------- ------- ------- ------------------ ---------------------
00003.MPLS AVC 0:07:05 885952512 23931121712 16,65 15,64 DD AC3 2.0 192Kbps
DISC INFO:

Disc Title: Slut Puppies 3 1080i Blu-ray DD2.0 -TrollHD XXX
Disc Size: 23931121712 bytes
Protection: AACS
BD-Java: Yes
BDInfo: 0.5.8

PLAYLIST REPORT:

Name: 00003.MPLS
Length: 0:07:05.591 (h:m:s.ms)
Size: 885952512 bytes
Total Bitrate: 16,65 Mbps

VIDEO:

Codec Bitrate Description
----- ------- -----------
MPEG-4 AVC Video 15639 kbps 1080i / 29,970 fps / 16:9 / High Profile 4.1

AUDIO:

Codec Language Bitrate Description
----- -------- ------- -----------
Dolby Digital Audio Undetermined 192 kbps 2.0 / 48 kHz / 192 kbps / DN -4dB

FILES:

Name Time In Length Size Total Bitrate
---- ------- ------ ---- -------------
00003.M2TS 0:00:00.000 0:07:05.591 885952512 16654

CHAPTERS:

Number Time In Length Avg Video Rate Max 1-Sec Rate Max 1-Sec Time Max 5-Sec Rate Max 5-Sec Time Max 10Sec Rate Max 10Sec Time Avg Frame Size Max Frame Size Max Frame Time
------ ------- ------ -------------- -------------- -------------- -------------- -------------- -------------- -------------- -------------- -------------- --------------
1 0:00:00.000 0:01:10.503 15749 kbps 19518 kbps 00:00:21.921 16588 kbps 00:00:21.354 16205 kbps 00:00:21.554 65654 bytes 154010 bytes 00:01:10.470
2 0:01:10.503 0:00:53.753 15650 kbps 18134 kbps 00:01:30.790 16747 kbps 00:01:28.088 16117 kbps 00:01:41.568 65272 bytes 155218 bytes 00:01:10.970
3 0:02:04.257 0:01:19.345 15705 kbps 17334 kbps 00:03:14.260 16505 kbps 00:03:06.819 16338 kbps 00:03:06.419 65503 bytes 146218 bytes 00:02:23.276
4 0:03:23.603 0:01:07.600 15648 kbps 17422 kbps 00:03:30.510 16228 kbps 00:03:28.374 16041 kbps 00:03:27.373 65267 bytes 137425 bytes 00:03:30.577
5 0:04:31.204 0:01:26.653 15719 kbps 17487 kbps 00:05:36.269 16291 kbps 00:04:58.631 16002 kbps 00:05:35.735 65560 bytes 131851 bytes 00:05:51.751
6 0:05:57.857 0:01:07.734 15324 kbps 16680 kbps 00:06:57.917 16052 kbps 00:06:02.328 15934 kbps 00:06:01.361 63947 bytes 140519 bytes 00:06:33.359

STREAM DIAGNOSTICS:

File PID Type Codec Language Seconds Bitrate Bytes Packets
---- --- ---- ----- -------- -------------- -------------- ------------- -----
00003.M2TS 4113 (0x1011) 0x1B AVC 425,492 15642 831953389 4528923
00003.M2TS 4352 (0x1100) 0x81 AC3 und (Undetermined) 425,492 192 10214400 66500
<---- END FORUMS PASTE ---->

QUICK SUMMARY:

Disc Title: Slut Puppies 3 1080i Blu-ray DD2.0 -TrollHD XXX
Disc Size: 23931121712 bytes
Protection: AACS
BD-Java: Yes
Playlist: 00003.MPLS
Size: 885952512 bytes
Length: 0:07:05.591
Total Bitrate: 16,65 Mbps
Video: MPEG-4 AVC Video / 15639 kbps / 1080i / 29,970 fps / 16:9 / High Profile 4.1
Audio: Undetermined / Dolby Digital Audio / 2.0 / 48 kHz / 192 kbps / DN -4dB

********************
PLAYLIST: 01003.MPLS
********************

<--- BEGIN FORUMS PASTE --->
Total Video
Title Codec Length Movie Size Disc Size Bitrate Bitrate Main Audio Track Secondary Audio Track
----- ------ ------- -------------- -------------- ------- ------- ------------------ ---------------------
01003.MPLS AVC 0:07:05 885952512 23931121712 16,65 15,64 DD AC3 2.0 192Kbps
DISC INFO:

Disc Title: Slut Puppies 3 1080i Blu-ray DD2.0 -TrollHD XXX
Disc Size: 23931121712 bytes
Protection: AACS
BD-Java: Yes
BDInfo: 0.5.8

PLAYLIST REPORT:

Name: 01003.MPLS
Length: 0:07:05.591 (h:m:s.ms)
Size: 885952512 bytes
Total Bitrate: 16,65 Mbps

VIDEO:

Codec Bitrate Description
----- ------- -----------
MPEG-4 AVC Video 15639 kbps 1080i / 29,970 fps / 16:9 / High Profile 4.1

AUDIO:

Codec Language Bitrate Description
----- -------- ------- -----------
Dolby Digital Audio Undetermined 192 kbps 2.0 / 48 kHz / 192 kbps / DN -4dB

FILES:

Name Time In Length Size Total Bitrate
---- ------- ------ ---- -------------
00003.M2TS 0:00:00.000 0:07:05.591 885952512 16654

CHAPTERS:

Number Time In Length Avg Video Rate Max 1-Sec Rate Max 1-Sec Time Max 5-Sec Rate Max 5-Sec Time Max 10Sec Rate Max 10Sec Time Avg Frame Size Max Frame Size Max Frame Time
------ ------- ------ -------------- -------------- -------------- -------------- -------------- -------------- -------------- -------------- -------------- --------------
1 0:00:00.000 0:01:10.503 15749 kbps 19518 kbps 00:00:21.921 16588 kbps 00:00:21.354 16205 kbps 00:00:21.554 65654 bytes 154010 bytes 00:01:10.470
2 0:01:10.503 0:00:53.753 15650 kbps 18134 kbps 00:01:30.790 16747 kbps 00:01:28.088 16117 kbps 00:01:41.568 65272 bytes 155218 bytes 00:01:10.970
3 0:02:04.257 0:01:19.345 15705 kbps 17334 kbps 00:03:14.260 16505 kbps 00:03:06.819 16338 kbps 00:03:06.419 65503 bytes 146218 bytes 00:02:23.276
4 0:03:23.603 0:01:07.600 15648 kbps 17422 kbps 00:03:30.510 16228 kbps 00:03:28.374 16041 kbps 00:03:27.373 65267 bytes 137425 bytes 00:03:30.577
5 0:04:31.204 0:01:26.653 15719 kbps 17487 kbps 00:05:36.269 16291 kbps 00:04:58.631 16002 kbps 00:05:35.735 65560 bytes 131851 bytes 00:05:51.751
6 0:05:57.857 0:01:07.734 15324 kbps 16680 kbps 00:06:57.917 16052 kbps 00:06:02.328 15934 kbps 00:06:01.361 63947 bytes 140519 bytes 00:06:33.359

STREAM DIAGNOSTICS:

File PID Type Codec Language Seconds Bitrate Bytes Packets
---- --- ---- ----- -------- -------------- -------------- ------------- -----
00003.M2TS 4113 (0x1011) 0x1B AVC 425,492 15642 831953389 4528923
00003.M2TS 4352 (0x1100) 0x81 AC3 und (Undetermined) 425,492 192 10214400 66500
<---- END FORUMS PASTE ---->

QUICK SUMMARY:

Disc Title: Slut Puppies 3 1080i Blu-ray DD2.0 -TrollHD XXX
Disc Size: 23931121712 bytes
Protection: AACS
BD-Java: Yes
Playlist: 01003.MPLS
Size: 885952512 bytes
Length: 0:07:05.591
Total Bitrate: 16,65 Mbps
Video: MPEG-4 AVC Video / 15639 kbps / 1080i / 29,970 fps / 16:9 / High Profile 4.1
Audio: Undetermined / Dolby Digital Audio / 2.0 / 48 kHz / 192 kbps / DN -4dB

********************
PLAYLIST: 00001.MPLS
********************

<--- BEGIN FORUMS PASTE --->
Total Video
Title Codec Length Movie Size Disc Size Bitrate Bitrate Main Audio Track Secondary Audio Track
----- ------ ------- -------------- -------------- ------- ------- ------------------ ---------------------
00001.MPLS AVC 0:00:40 80173056 23931121712 16,00 15,02 DD AC3 2.0 192Kbps
DISC INFO:

Disc Title: Slut Puppies 3 1080i Blu-ray DD2.0 -TrollHD XXX
Disc Size: 23931121712 bytes
Protection: AACS
BD-Java: Yes
BDInfo: 0.5.8

PLAYLIST REPORT:

Name: 00001.MPLS
Length: 0:00:40.081 (h:m:s.ms)
Size: 80173056 bytes
Total Bitrate: 16,00 Mbps

VIDEO:

Codec Bitrate Description
----- ------- -----------
MPEG-4 AVC Video 15018 kbps 1080p / 23,976 fps / 16:9 / High Profile 4.1

AUDIO:

Codec Language Bitrate Description
----- -------- ------- -----------
Dolby Digital Audio Undetermined 192 kbps 2.0 / 48 kHz / 192 kbps / DN -4dB

FILES:

Name Time In Length Size Total Bitrate
---- ------- ------ ---- -------------
00001.M2TS 0:00:00.000 0:00:40.081 80173056 16002

CHAPTERS:

Number Time In Length Avg Video Rate Max 1-Sec Rate Max 1-Sec Time Max 5-Sec Rate Max 5-Sec Time Max 10Sec Rate Max 10Sec Time Avg Frame Size Max Frame Size Max Frame Time
------ ------- ------ -------------- -------------- -------------- -------------- -------------- -------------- -------------- -------------- -------------- --------------
1 0:00:00.000 0:00:40.081 15018 kbps 28465 kbps 00:00:02.961 18290 kbps 00:00:01.001 16532 kbps 00:00:00.667 78297 bytes 514274 bytes 00:00:03.003

STREAM DIAGNOSTICS:

File PID Type Codec Language Seconds Bitrate Bytes Packets
---- --- ---- ----- -------- -------------- -------------- ------------- -----
00001.M2TS 4113 (0x1011) 0x1B AVC 39,998 15049 75243382 409503
00001.M2TS 4352 (0x1100) 0x81 AC3 und (Undetermined) 39,998 192 961536 6260
<---- END FORUMS PASTE ---->

QUICK SUMMARY:

Disc Title: Slut Puppies 3 1080i Blu-ray DD2.0 -TrollHD XXX
Disc Size: 23931121712 bytes
Protection: AACS
BD-Java: Yes
Playlist: 00001.MPLS
Size: 80173056 bytes
Length: 0:00:40.081
Total Bitrate: 16,00 Mbps
Video: MPEG-4 AVC Video / 15018 kbps / 1080p / 23,976 fps / 16:9 / High Profile 4.1
Audio: Undetermined / Dolby Digital Audio / 2.0 / 48 kHz / 192 kbps / DN -4dB

********************
PLAYLIST: 01001.MPLS
********************

<--- BEGIN FORUMS PASTE --->
Total Video
Title Codec Length Movie Size Disc Size Bitrate Bitrate Main Audio Track Secondary Audio Track
----- ------ ------- -------------- -------------- ------- ------- ------------------ ---------------------
01001.MPLS AVC 0:00:40 80173056 23931121712 16,00 15,02 DD AC3 2.0 192Kbps
DISC INFO:

Disc Title: Slut Puppies 3 1080i Blu-ray DD2.0 -TrollHD XXX
Disc Size: 23931121712 bytes
Protection: AACS
BD-Java: Yes
BDInfo: 0.5.8

PLAYLIST REPORT:

Name: 01001.MPLS
Length: 0:00:40.081 (h:m:s.ms)
Size: 80173056 bytes
Total Bitrate: 16,00 Mbps

VIDEO:

Codec Bitrate Description
----- ------- -----------
MPEG-4 AVC Video 15018 kbps 1080p / 23,976 fps / 16:9 / High Profile 4.1

AUDIO:

Codec Language Bitrate Description
----- -------- ------- -----------
Dolby Digital Audio Undetermined 192 kbps 2.0 / 48 kHz / 192 kbps / DN -4dB

FILES:

Name Time In Length Size Total Bitrate
---- ------- ------ ---- -------------
00001.M2TS 0:00:00.000 0:00:40.081 80173056 16002

CHAPTERS:

Number Time In Length Avg Video Rate Max 1-Sec Rate Max 1-Sec Time Max 5-Sec Rate Max 5-Sec Time Max 10Sec Rate Max 10Sec Time Avg Frame Size Max Frame Size Max Frame Time
------ ------- ------ -------------- -------------- -------------- -------------- -------------- -------------- -------------- -------------- -------------- --------------
1 0:00:00.000 0:00:40.081 15018 kbps 28465 kbps 00:00:02.961 18290 kbps 00:00:01.001 16532 kbps 00:00:00.667 78297 bytes 514274 bytes 00:00:03.003

STREAM DIAGNOSTICS:

File PID Type Codec Language Seconds Bitrate Bytes Packets
---- --- ---- ----- -------- -------------- -------------- ------------- -----
00001.M2TS 4113 (0x1011) 0x1B AVC 39,998 15049 75243382 409503
00001.M2TS 4352 (0x1100) 0x81 AC3 und (Undetermined) 39,998 192 961536 6260
<---- END FORUMS PASTE ---->

QUICK SUMMARY:

Disc Title: Slut Puppies 3 1080i Blu-ray DD2.0 -TrollHD XXX
Disc Size: 23931121712 bytes
Protection: AACS
BD-Java: Yes
Playlist: 01001.MPLS
Size: 80173056 bytes
Length: 0:00:40.081
Total Bitrate: 16,00 Mbps
Video: MPEG-4 AVC Video / 15018 kbps / 1080p / 23,976 fps / 16:9 / High Profile 4.1
Audio: Undetermined / Dolby Digital Audio / 2.0 / 48 kHz / 192 kbps / DN -4dB

********************
PLAYLIST: 00000.MPLS
********************

<--- BEGIN FORUMS PASTE --->
Total Video
Title Codec Length Movie Size Disc Size Bitrate Bitrate Main Audio Track Secondary Audio Track
----- ------ ------- -------------- -------------- ------- ------- ------------------ ---------------------
00000.MPLS AVC 0:00:39 61925376 23931121712 12,47 11,63 DD AC3 2.0 192Kbps
DISC INFO:

Disc Title: Slut Puppies 3 1080i Blu-ray DD2.0 -TrollHD XXX
Disc Size: 23931121712 bytes
Protection: AACS
BD-Java: Yes
BDInfo: 0.5.8

PLAYLIST REPORT:

Name: 00000.MPLS
Length: 0:00:39.739 (h:m:s.ms)
Size: 61925376 bytes
Total Bitrate: 12,47 Mbps

VIDEO:

Codec Bitrate Description
----- ------- -----------
MPEG-4 AVC Video 11625 kbps 1080i / 29,970 fps / 16:9 / High Profile 4.1

AUDIO:

Codec Language Bitrate Description
----- -------- ------- -----------
Dolby Digital Audio Undetermined 192 kbps 2.0 / 48 kHz / 192 kbps / DN -4dB

FILES:

Name Time In Length Size Total Bitrate
---- ------- ------ ---- -------------
00000.M2TS 0:00:00.000 0:00:39.739 61925376 12466

CHAPTERS:

Number Time In Length Avg Video Rate Max 1-Sec Rate Max 1-Sec Time Max 5-Sec Rate Max 5-Sec Time Max 10Sec Rate Max 10Sec Time Avg Frame Size Max Frame Size Max Frame Time
------ ------- ------ -------------- -------------- -------------- -------------- -------------- -------------- -------------- -------------- -------------- --------------
1 0:00:00.000 0:00:39.739 11625 kbps 49986 kbps 00:00:24.824 33222 kbps 00:00:24.024 30178 kbps 00:00:23.323 48487 bytes 300849 bytes 00:00:10.043

STREAM DIAGNOSTICS:

File PID Type Codec Language Seconds Bitrate Bytes Packets
---- --- ---- ----- -------- -------------- -------------- ------------- -----
00000.M2TS 4113 (0x1011) 0x1B AVC 39,640 11655 57747801 314542
00000.M2TS 4352 (0x1100) 0x81 AC3 und (Undetermined) 39,640 193 953856 6210
<---- END FORUMS PASTE ---->

QUICK SUMMARY:

Disc Title: Slut Puppies 3 1080i Blu-ray DD2.0 -TrollHD XXX
Disc Size: 23931121712 bytes
Protection: AACS
BD-Java: Yes
Playlist: 00000.MPLS
Size: 61925376 bytes
Length: 0:00:39.739
Total Bitrate: 12,47 Mbps
Video: MPEG-4 AVC Video / 11625 kbps / 1080i / 29,970 fps / 16:9 / High Profile 4.1
Audio: Undetermined / Dolby Digital Audio / 2.0 / 48 kHz / 192 kbps / DN -4dB

********************
PLAYLIST: 01000.MPLS
********************

<--- BEGIN FORUMS PASTE --->
Total Video
Title Codec Length Movie Size Disc Size Bitrate Bitrate Main Audio Track Secondary Audio Track
----- ------ ------- -------------- -------------- ------- ------- ------------------ ---------------------
01000.MPLS AVC 0:00:39 61925376 23931121712 12,47 11,63 DD AC3 2.0 192Kbps
DISC INFO:

Disc Title: Slut Puppies 3 1080i Blu-ray DD2.0 -TrollHD XXX
Disc Size: 23931121712 bytes
Protection: AACS
BD-Java: Yes
BDInfo: 0.5.8

PLAYLIST REPORT:

Name: 01000.MPLS
Length: 0:00:39.739 (h:m:s.ms)
Size: 61925376 bytes
Total Bitrate: 12,47 Mbps

VIDEO:

Codec Bitrate Description
----- ------- -----------
MPEG-4 AVC Video 11625 kbps 1080i / 29,970 fps / 16:9 / High Profile 4.1

AUDIO:

Codec Language Bitrate Description
----- -------- ------- -----------
Dolby Digital Audio Undetermined 192 kbps 2.0 / 48 kHz / 192 kbps / DN -4dB

FILES:

Name Time In Length Size Total Bitrate
---- ------- ------ ---- -------------
00000.M2TS 0:00:00.000 0:00:39.739 61925376 12466

CHAPTERS:

Number Time In Length Avg Video Rate Max 1-Sec Rate Max 1-Sec Time Max 5-Sec Rate Max 5-Sec Time Max 10Sec Rate Max 10Sec Time Avg Frame Size Max Frame Size Max Frame Time
------ ------- ------ -------------- -------------- -------------- -------------- -------------- -------------- -------------- -------------- -------------- --------------
1 0:00:00.000 0:00:39.739 11625 kbps 49986 kbps 00:00:24.824 33222 kbps 00:00:24.024 30178 kbps 00:00:23.323 48487 bytes 300849 bytes 00:00:10.043

STREAM DIAGNOSTICS:

File PID Type Codec Language Seconds Bitrate Bytes Packets
---- --- ---- ----- -------- -------------- -------------- ------------- -----
00000.M2TS 4113 (0x1011) 0x1B AVC 39,640 11655 57747801 314542
00000.M2TS 4352 (0x1100) 0x81 AC3 und (Undetermined) 39,640 193 953856 6210
<---- END FORUMS PASTE ---->

QUICK SUMMARY:

Disc Title: Slut Puppies 3 1080i Blu-ray DD2.0 -TrollHD XXX
Disc Size: 23931121712 bytes
Protection: AACS
BD-Java: Yes
Playlist: 01000.MPLS
Size: 61925376 bytes
Length: 0:00:39.739
Total Bitrate: 12,47 Mbps
Video: MPEG-4 AVC Video / 11625 kbps / 1080i / 29,970 fps / 16:9 / High Profile 4.1
Audio: Undetermined / Dolby Digital Audio / 2.0 / 48 kHz / 192 kbps / DN -4dB
General #0
ID : 0 (0x0)
Complete name : Slut Puppies 3 1080i Blu-ray DD2.0 -TrollHD XXX\BDMV\STREAM\00002.m2ts
Format : BDAV
Format/Info : Blu-ray Video
File size : 21.0 GiB
Duration : 3h 18mn
Overall bit rate mode : Variable
Overall bit rate : 15.2 Mbps
Maximum Overall bit rate : 48.0 Mbps
Video #4113
ID : 4113 (0x1011)
Menu ID : 1 (0x1)
Format : AVC
Format/Info : Advanced Video Codec
Format profile : High@L4.1
Format settings, CABAC : Yes
Format settings, ReFrames : 3 frames
Format settings, GOP : M=3, N=15
Codec ID : 27
Duration : 3h 18mn
Bit rate mode : Variable
Bit rate : 14.4 Mbps
Maximum bit rate : 35.0 Mbps
Width : 1 920 pixels
Height : 1 080 pixels
Display aspect ratio : 16:9
Frame rate : 29.970 fps
Standard : NTSC
Color space : YUV
Chroma subsampling : 4:2:0
Bit depth : 8 bits
Scan type : Interlaced
Scan order : Top Field First
Bits/(Pixel*Frame) : 0.231
Stream size : 19.9 GiB (95%)
Color primaries : BT.709-5, BT.1361, IEC 61966-2-4, SMPTE RP177
Transfer characteristics : BT.709-5, BT.1361
Matrix coefficients : BT.709-5, BT.1361, IEC 61966-2-4 709, SMPTE RP177
Audio #4352
ID : 4352 (0x1100)
Menu ID : 1 (0x1)
Format : AC-3
Format/Info : Audio Coding 3
Mode extension : CM (complete main)
Codec ID : 129
Duration : 3h 18mn
Bit rate mode : Constant
Bit rate : 192 Kbps
Channel(s) : 2 channels
Channel positions : Front: L R
Sampling rate : 48.0 KHz
Bit depth : 16 bits
Compression mode : Lossy
Stream size : 272 MiB (1%)


 ·  , , FAQ-
:  [ 09--2013 00:54 ]

  

.torrent

.torrent 115 KB


: 22.29 GB
(hash) : 331a22b2d5df10cede9d04ad5a73a9aea2816670
··
...

Slut Puppies 3 3 . !

!