Скачать через торрент Килл ла Килл Kill la Kill бесплатно Аниме Все серии на русском torrent

Если у вас наблюдаются проблемы со скриншотами, переходом по ссылками, скачиванием торрентов - проблемы в блокировщике рекламы AdBlock. #хорошегоДня!


Статистика раздачи
Размер:  702 MB   |    Зарегистрирован:  4 года 2 месяца   |    .torrent скачан:  30 раз   |   
Раздают:  1  
   
Загрузка...
 
Автор Сообщение

Polarnik

avatar Polarnik


Килл ла Килл / Kill la Kill / Kiru ra Kiru

Страна: Япония
Год выпуска: 2013 г.
Жанр: приключения
Тип: TV
Продолжительность: 25 мин.
Режиссер: Имайси Хироюки
Студия: Trigger

Описание: Академия Хонноуджи. Место, где прав тот, кто сильней. Всем в академии заправляет школьный совет и его глава, Сацуки Кирюин. Тем временем у порога школы появляется новая "ученица", Рюко Матой.
История о яростной борьбе характеров в новой работе команды, которая подарила нам Gurren Lagann.

Качество: HDTVRip
Тип релиза: Без хардсаба
Формат видео: MKV
Наличие линковки: Нет
Релиз/Автор рипа: Commie
Видео: Кодек: AVC High@L3.1 Разрешение: 1280х720 Битрейт: 1689 кб/с Частота кадров: 23.976 (10 бит)
Аудио: кодек: AAC битрейт: 236 частота: 48,0 КГц каналов: 2 Язык Японский
Субтитры: Формат: ass, подключаемые, в составе контейнера Язык субтитров русский ; Перевод: Xardos
GeneralComplete name : D:\Филипп\[Zero-Raws] Kill la Kill - 01 (MBS 1280x720 x264 AAC).mp4Format : MPEG-4Format profile : Base MediaCodec ID : isomFile size : 557 MiBDuration : 24mn 2sOverall bit rate mode : VariableOverall bit rate : 3 240 KbpsEncoded date : UTC 2013-10-03 18:44:22Tagged date : UTC 2013-10-03 18:44:22

VideoID : 1Format : AVCFormat/Info : Advanced Video CodecFormat profile : High@L3.1Format settings, CABAC : YesFormat settings, ReFrames : 4 framesCodec ID : avc1Codec ID/Info : Advanced Video CodingDuration : 24mn 2sBit rate : 3 000 KbpsMaximum bit rate : 17.7 MbpsWidth : 1 280 pixelsHeight : 720 pixelsDisplay aspect ratio : 16:9Frame rate mode : ConstantFrame rate : 23.976 fpsColor space : YUVChroma subsampling : 4:2:0Bit depth : 8 bitsScan type : ProgressiveBits/(Pixel*Frame) : 0.136Stream size : 516 MiB (93%)Writing library : x264 core 133 r2334 a3ac64bEncoding settings : cabac=1 / ref=3 / deblock=1:0:0 / analyse=0x3:0x113 / me=hex / subme=7 / psy=1 / psy_rd=1.00:0.00 / mixed_ref=1 / me_range=16 / chroma_me=1 / trellis=1 / 8x8dct=1 / cqm=0 / deadzone=21,11 / fast_pskip=1 / chroma_qp_offset=-2 / threads=12 / lookahead_threads=2 / sliced_threads=0 / nr=0 / decimate=1 / interlaced=0 / bluray_compat=0 / constrained_intra=0 / bframes=3 / b_pyramid=2 / b_adapt=1 / b_bias=0 / direct=1 / weightb=1 / open_gop=0 / weightp=2 / keyint=250 / keyint_min=23 / scenecut=40 / intra_refresh=0 / rc_lookahead=40 / rc=crf / mbtree=1 / crf=19.5 / qcomp=0.60 / qpmin=0 / qpmax=69 / qpstep=4 / ip_ratio=1.40 / aq=1:1.00Encoded date : UTC 2013-10-03 18:24:47Tagged date : UTC 2013-10-03 18:44:24

AudioID : 2Format : AACFormat/Info : Advanced Audio CodecFormat profile : LCCodec ID : 40Duration : 24mn 2sBit rate mode : VariableBit rate : 236 KbpsMaximum bit rate : 264 KbpsChannel(s) : 2 channelsChannel positions : Front: L RSampling rate : 48.0 KHzCompression mode : LossyDelay relative to video : 83msStream size : 40.7 MiB (7%)Language : JapaneseEncoded date : UTC 2013-10-03 18:24:51Tagged date : UTC 2013-10-03 18:44:24
01. First


Трекер:  [ 09-Окт-2013 16:15 ]

  

Скачать .torrent

Размер .torrent файла 14 KB


Размер: 702 MB
Хэш (hash) релиза: d169fd8027087028deb05c6b7d0c5f9c49b01bc4
Подписка на обновления:

Еще никто не оставлял запись к записи скачать торрент Килл ла Килл Kill la Kill . Будь первым!

!Обратная связь