Скачать порно через торрент Kanojo ga Mimai ni Konai Wake Она навестила парня UnionPeer.org бесплатно онлайн HD качество

Скачать новое порно 2015, 2014 новинки через торрент UnionPeer.org

Порно торрент бесплатно ЮнионПир.орг

Если у вас наблюдаются проблемы со скриншотами, переходом по ссылками, скачиванием торрентов - проблемы в блокировщике рекламы AdBlock. #хорошегоДня!


Статистика раздачи
Размер:  5.26 GB   |    Зарегистрирован:  3 года 10 месяцев   |    .torrent скачан:  127 раз   |   
Раздают:  1  
   
Загрузка...
 
Автор Сообщение

LinGr

avatar LinGr


彼女が見舞いに来ない理由 | Kanojo ga Mimai ni Konai Wake | Она навестила парня


Год выпуска: 2011
Страна: Япония
Жанр: big tits, blowjob, nurse, rape, straight
Продолжительность: >3 эп. по 30 мин.
Субтитры: Отсутствуют
Цензура: Присутствует
Студия: Lune TeamBitters | T-Rex
Описание:
Seiji is a permanent part-timer. He has been dating a girl, Ai, for two years and he is now thinking about marrying her. But one day, he has a traffic accident and breaks his leg. Like this, he is hospitalized... "I'll visit you every day," Ai says it with a smile. But their relationship gradually changes after his hospitalization... A real estate broker who hit Seiji. A guy at the same hospital room. A handsome doctor in charge of him. A co-worker at his shop. A nurse who is his ex-girlfriend. Various people cut in on Seiji and Ai's relationship... Will they be able to overcome it and keep their relationship...?
Информационные ссылки: AniDB || MAL || World Art || ХентайМаг
Исходник: DVD-5
Видео: MPEG2 | NTSC | 16x9 | 720x480 | 8000 Kbps
Аудио JAP: PCM | 48000Hz | 1536 Kbps | 2ch
01. Volume 1
02. Volume 2
03. Volume 3
General
Complete name : H:\VIDEO_TS\VTS_01_1.VOB
Format : MPEG-PS
File size : 1 024 MiB
Duration : 14mn 45s
Overall bit rate : 9 701 Kbps
Writing library : encoded by TMPGEnc 4.0 XPress Version. 4.7.7.307

Video
ID : 224 (0xE0)
Format : MPEG Video
Format version : Version 2
Format profile : Main@Main
Format settings, BVOP : Yes
Format settings, Matrix : Custom
Format settings, GOP : M=3, N=16
Duration : 14mn 45s
Bit rate : 7 972 Kbps
Maximum bit rate : 8 000 Kbps
Width : 720 pixels
Height : 480 pixels
Display aspect ratio : 16:9
Frame rate : 29.970 fps
Standard : NTSC
Color space : YUV
Chroma subsampling : 4:2:0
Bit depth : 8 bits
Scan type : Interlaced
Scan order : Top Field First
Compression mode : Lossy
Bits/(Pixel*Frame) : 0.770
Stream size : 841 MiB (82%)
Writing library : TMPGEnc XPress 4.7.7.307

Audio
ID : 189 (0xBD)-160 (0xA0)
Format : PCM
Format settings, Endianness : Big
Format settings, Sign : Signed
Muxing mode : DVD-Video
Duration : 14mn 44s
Bit rate mode : Constant
Bit rate : 1 536 Kbps
Channel(s) : 2 channels
Channel positions : Front: L R
Sampling rate : 48.0 KHz
Bit depth : 16 bits
Stream size : 162 MiB (16%)


Исходник: DVD-5
Видео: MPEG2 | NTSC | 16x9 | 720x480 | 8400 Kbps
Аудио JAP: AC-3 | 48000Hz | 192 Kbps | 2ch
General
Complete name : H:\VIDEO_TS\VTS_01_1.VOB
Format : MPEG-PS
File size : 1 024 MiB
Duration : 16mn 16s
Overall bit rate : 8 794 Kbps

Video
ID : 224 (0xE0)
Format : MPEG Video
Format version : Version 2
Format profile : Main@Main
Format settings, BVOP : Yes
Format settings, Matrix : Custom
Format settings, GOP : M=3, N=15
Duration : 16mn 16s
Bit rate : 8 400 Kbps
Width : 720 pixels
Height : 480 pixels
Display aspect ratio : 16:9
Frame rate : 29.970 fps
Standard : NTSC
Color space : YUV
Chroma subsampling : 4:2:0
Bit depth : 8 bits
Scan type : Interlaced
Scan order : Top Field First
Compression mode : Lossy
Bits/(Pixel*Frame) : 0.811
Stream size : 981 MiB (96%)

Audio
ID : 189 (0xBD)-128 (0x80)
Format : AC-3
Format/Info : Audio Coding 3
Mode extension : CM (complete main)
Muxing mode : DVD-Video
Duration : 16mn 16s
Bit rate mode : Constant
Bit rate : 192 Kbps
Channel(s) : 2 channels
Channel positions : Front: L R
Sampling rate : 48.0 KHz
Bit depth : 16 bits
Compression mode : Lossy
Delay relative to video : -66ms
Stream size : 22.4 MiB (2%)


Исходник: DVD-5
Видео: MPEG2 | NTSC | 16x9 | 720x480 | 8000 Kbps
Аудио JAP: AC-3 | 48000Hz | 192 Kbps | 2ch
General
Complete name : L:\VIDEO_TS\VTS_01_1.VOB
Format : MPEG-PS
File size : 1 024 MiB
Duration : 2mn 30s
Overall bit rate : 57.0 Mbps

Video
ID : 224 (0xE0)
Format : MPEG Video
Format version : Version 2
Format profile : Main@Main
Format settings, BVOP : Yes
Format settings, Matrix : Custom
Duration : 2mn 30s
Bit rate : 55.7 Mbps
Maximum bit rate : 8 000 Kbps
Width : 720 pixels
Height : 480 pixels
Display aspect ratio : 16:9
Frame rate : 29.970 fps
Standard : NTSC
Color space : YUV
Chroma subsampling : 4:2:0
Bit depth : 8 bits
Scan type : Interlaced
Scan order : Bottom Field First
Compression mode : Lossy
Bits/(Pixel*Frame) : 5.377
Stream size : 1 000 MiB (98%)

Audio
ID : 189 (0xBD)-128 (0x80)
Format : AC-3
Format/Info : Audio Coding 3
Mode extension : CM (complete main)
Muxing mode : DVD-Video
Duration : 2mn 30s
Bit rate mode : Constant
Bit rate : 192 Kbps
Channel(s) : 2 channels
Channel positions : Front: L R
Sampling rate : 48.0 KHz
Bit depth : 16 bits
Compression mode : Lossy
Stream size : 3.45 MiB (0%)


Трекер:  [ 09-Окт-2013 00:19 ]

  

Скачать .torrent

Размер .torrent файла 27 KB


Размер: 5.26 GB
Хэш (hash) релиза: e0a5c4dc42e646fde9620c3d960ca9f96b5e088f

bot

Топик был перенесен в форум Хентай | С цензурой

Перенес LinGr

Хотите добавить комментарий к записи скачать торрент Kanojo ga Mimai ni Konai Wake Она навестила парня

!Обратная связь