Скачать порно через торрент Oyako Rankan The Animation Особняк матери и дочерей UnionPeer.org бесплатно онлайн HD качество

Скачать новое порно 2015, 2014 новинки через торрент UnionPeer.org

Порно торрент бесплатно ЮнионПир.орг

Если у вас наблюдаются проблемы со скриншотами, переходом по ссылками, скачиванием торрентов - проблемы в блокировщике рекламы AdBlock. #хорошегоДня!


Статистика раздачи
Размер:  3.32 GB   |    Зарегистрирован:  3 года 10 месяцев   |    .torrent скачан:  171 раз   |   
Раздают:  1  
   
Загрузка...
 
Автор Сообщение

LinGr

avatar LinGr


Oyako Rankan The Animation / 母娘乱館 THE ANIMATION
Особняк матери и дочерей / Любовь на столе


Год производства: 2013 г.
Жанр: Anal sex, Big tits, Group sex, Oral sex, X-Ray
Серии: ep. 1
Продолжительность: 28 min + 24 min трейлеры = 52 min
Цензура: Есть

Озвучка: Японская (Оригинальная)

Режиссер: Hayakawa Naomi
Автор оригинала: Alice Soft
Студия: Pink Pineapple

Описание RUS:
Мать и ее дочки попадают в особняк,где их трахает толпа мужиков,а еще в тот же особняк попадает и сын главной героини,ну и по совместительству брат двух ее дочек.
Теперь в этом особняке начнутся беспорядочные половые акты,с участием всех членов семьи.


Описание ENG:
A mother and her daughter get into the mansion, where they fuck crowd of men, and even in the same house and gets a son of the protagonist,
well, and part two of her brother dochek.Teper in this mansion will begin promiscuous sexual acts with the participation of all family members.

Информационные ссылки: AniDB - MAL - World Art - ХентайМаг

Качество видео: DVD5
Формат видео: DVD Video
Видео кодек: MPEG2
Аудио кодек: AC3
Видео: 720х480, (16:9), 29,970 кадров/сек, ~ 8978 Кбит/сек, NTSC
Аудио: JAP, AC-3, 2 канала, 192 Кбит/сек, 48,0 КГц
Общее
Полное имя : J:\VIDEO_TS\VTS_01_1.VOB
Формат : MPEG-PS
Размер файла : 1024 Мбайт
Продолжительность : 15 м.
Режим общего битрейта : Переменный
Общий поток : 9356 Кбит/сек

Видео
Идентификатор : 224 (0xE0)
Формат : MPEG Video
Версия формата : Version 2
Профиль формата : Main@Main
Параметр BVOP формата : Да
Параметр матрицы формата : Выборочная
Параметр GOP формата : Variable
Продолжительность : 15 м.
Вид битрейта : Переменный
Битрейт : 8978 Кбит/сек
Максимальный битрейт : 9800 Кбит/сек
Ширина : 720 пикселей
Высота : 480 пикселей
Соотношение сторон : 16:9
Частота кадров : 29,970 кадров/сек
Стандарт вещания : NTSC
Цветовое пространство : YUV
Субдискретизация насыщенности : 4:2:0
Битовая глубина : 8 бит
Тип развёртки : Чересстрочная
Порядок развёртки : Верхнее поле первое
Метод сжатия : С потерями
Бит/(Пиксели*Кадры) : 0.867
Временной код первого кадра : 01:00:10:00
Оригинал временного кода : Group of pictures header
Размер потока : 982 Мбайт (96%)

Аудио
Идентификатор : 189 (0xBD)-128 (0x80)
Формат : AC-3
Формат/Информация : Audio Coding 3
Расширение режима : CM (complete main)
Параметр Endianness формата : Big
Режим смешивания : DVD-Video
Продолжительность : 15 м.
Вид битрейта : Постоянный
Битрейт : 192 Кбит/сек
Каналы : 2 канала
Расположение каналов : Front: L R
Частота : 48,0 КГц
Битовая глубина : 16 бит
Метод сжатия : С потерями
Размер потока : 21,0 Мбайт (2%)

Меню


Трекер:  [ 08-Окт-2013 00:10 ]

  

Скачать .torrent

Размер .torrent файла 17 KB


Размер: 3.32 GB
Хэш (hash) релиза: b75f10c1994de37dac17347bd9148edc86322dca

bot

Топик был перенесен в форум Хентай | С цензурой

Перенес LinGr

Хотите добавить комментарий к записи скачать торрент Oyako Rankan The Animation Особняк матери и дочерей

!Обратная связь