Скачать через торрент Клуб очкариков! Meganebu! бесплатно Аниме Все серии на русском torrent

Если у вас наблюдаются проблемы со скриншотами, переходом по ссылками, скачиванием торрентов - проблемы в блокировщике рекламы AdBlock. #хорошегоДня!


Статистика раздачи
Размер:  437 MB   |    Зарегистрирован:  4 года 2 месяца   |    .torrent скачан:  6 раз   |   
Раздают:  1  
   
Загрузка...
 
Автор Сообщение

Polarnik

avatar Polarnik


Клуб очкариков! / Meganebu!

Страна: Япония
Год выпуска: 2013 г.
Жанр: приключения
Тип: TV
Продолжительность: 12 эп., 25 мин.
Режиссер: Ямамото Соби
Выпуск: c 07.10.2013
Студия:

Описание: История расскажет нам о повседневной жизни пяти парней, которые не расстаются со своими очками, их деятельности в клубе и отношениях между собой.

World Art

Качество: HDTVRip
Тип релиза: Без хардсаба
Формат видео: MP4
Наличие линковки: Нет
Энкод: Zero-Raws
Видео: AVC, 8 bit, 1280x720, ~2291 kbps, 23.976 fps
Аудио: JP, AAC, 2ch, ~252 kbps, 48 kHz (в составе контейнера) [Original]
Субтитры 1: внешним файлом, русские
Перевод: Nika Elrik
Редактура: Харушечка
Оформление: KeeperRus
Общее
Полное имя : D:\[Zero-Raws] Meganebu! [720p]\[Zero-Raws] Meganebu! - 01 (MX 1280x720 x264 AAC).mp4
Формат : MPEG-4
Профиль формата : Base Media
Идентификатор кодека : isom
Размер файла : 437 Мбайт
Продолжительность : 23 м.
Режим общего битрейта : Переменный
Общий поток : 2547 Кбит/сек
Дата кодирования : UTC 2013-10-06 20:41:20
Дата пометки : UTC 2013-10-06 20:41:20

Видео
Идентификатор : 1
Формат : AVC
Формат/Информация : Advanced Video Codec
Профиль формата : High@L3.1
Параметр CABAC формата : Да
Параметр ReFrames формата : 4 кадра
Идентификатор кодека : avc1
Идентификатор кодека/Информация : Advanced Video Coding
Продолжительность : 23 м.
Битрейт : 2291 Кбит/сек
Максимальный битрейт : 13,8 Мбит/сек
Ширина : 1280 пикселей
Высота : 720 пикселей
Соотношение сторон : 16:9
Режим частоты кадров : Постоянный
Частота кадров : 23,976 кадра/сек
Цветовое пространство : YUV
Субдискретизация насыщенности : 4:2:0
Битовая глубина : 8 бит
Тип развёртки : Прогрессивная
Бит/(Пиксели*Кадры) : 0.104
Размер потока : 393 Мбайт (90%)
Библиотека кодирования : x264 core 133 r2334 a3ac64b
Настройки программы : cabac=1 / ref=3 / deblock=1:0:0 / analyse=0x3:0x113 / me=hex / subme=7 / psy=1 / psy_rd=1.00:0.00 / mixed_ref=1 / me_range=16 / chroma_me=1 / trellis=1 / 8x8dct=1 / cqm=0 / deadzone=21,11 / fast_pskip=1 / chroma_qp_offset=-2 / threads=12 / lookahead_threads=2 / sliced_threads=0 / nr=0 / decimate=1 / interlaced=0 / bluray_compat=0 / constrained_intra=0 / bframes=3 / b_pyramid=2 / b_adapt=1 / b_bias=0 / direct=1 / weightb=1 / open_gop=0 / weightp=2 / keyint=250 / keyint_min=23 / scenecut=40 / intra_refresh=0 / rc_lookahead=40 / rc=crf / mbtree=1 / crf=19.5 / qcomp=0.60 / qpmin=0 / qpmax=69 / qpstep=4 / ip_ratio=1.40 / aq=1:1.00
Дата кодирования : UTC 2013-10-06 20:18:09
Дата пометки : UTC 2013-10-06 20:41:21

Аудио
Идентификатор : 2
Формат : AAC
Формат/Информация : Advanced Audio Codec
Профиль формата : LC
Идентификатор кодека : 40
Продолжительность : 23 м.
Вид битрейта : Переменный
Битрейт : 252 Кбит/сек
Максимальный битрейт : 260 Кбит/сек
Каналы : 2 канала
Расположение каналов : Front: L R
Частота : 48,0 КГц
Метод сжатия : С потерями
Размер потока : 43,3 Мбайт (10%)
Заголовок : aac#trackID=1:lang=Japanese@GPAC0.5.1-DEV-rev4283
Язык : Japanese
Дата кодирования : UTC 2013-10-06 20:41:20
Дата пометки : UTC 2013-10-06 20:41:21
File: D:\[Zero-Raws] Meganebu! - 01 (MX 1280x720 x264 AAC).mp4
Duration: 00:24:00 (1439.94)
Track #1: video
lang: Unknown (1)
codc: avc1 -> H264/AVC (22)
reso: 1280x720 -> 16:9
fram: 23.976 fps
rate: 2291 kbps (2290.61)
dura: 00:24:00 (1439.94)
size: 0.00 B (0)
Track #2: audio (aac#trackID=1:lang=Japanese@GPAC0.5.1-DEV-rev4283)
lang: ja -> Japanese (2)
codc: A_AAC/MPEG4/LC -> AAC (9)
chan: 2 -> Stereo
samp: 48000 Hz
rate: 252 kbps (252.38)
dura: 00:24:00 (1439.94)
size: 0.00 B (0)
Sizes: (check sanity)
disk: 437.19 MB (458431166)
trac: 0.00 B (0) [based on track size]
bitr: 436.51 MB (457717387) [based on bitrate]
tdif: 437.19 MB (458431166) 100.00%
bdif: 697.05 KB (713778) 0.15%
01. Episode 01


Трекер:  [ 09-Окт-2013 16:19 ]

  

Скачать .torrent

Размер .torrent файла 17 KB


Размер: 437 MB
Хэш (hash) релиза: 622f1d8cb2906021daf135ce7bd3e128d954f673
Подписка на обновления:

Торренты, похожие на Клуб очкариков! Meganebu! скачать торрент

Форум Название Автор Размер S L Добавлен
Аниме | HD Rips ·· Клуб очкариков! / Meganebu! (Ямамото Соби) [TV] [01 из 12] [Без хардсаба] [JAP+SUB] [2013 г., приключения, WEBRip] [1080p] Polarnik 568176199542 MB 0 0 1381266827

00:13

9-Окт-13

Аниме | HD Rips ·· Клуб Очкариков! / Meganebu! [TV] [1 из 12] [Без хардсаба] [RUS(int), JAP, SUB] [2013 г., приключение, комедия, HDTVRip] [720p] Polarnik 451701206431 MB 0 0 1381266811

00:13

9-Окт-13

Еще никто не оставлял запись к записи скачать торрент Клуб очкариков! Meganebu! . Будь первым!

!Обратная связь