Скачать порно через торрент Riley Steele: Perfect Pet Райли Стил: Идеальная кошечка UnionPeer.org бесплатно онлайн HD качество

Скачать новое порно 2015, 2014 новинки через торрент UnionPeer.org

Порно торрент бесплатно ЮнионПир.орг

Если у вас наблюдаются проблемы со скриншотами, переходом по ссылками, скачиванием торрентов - проблемы в блокировщике рекламы AdBlock. #хорошегоДня!


Статистика раздачи
Размер:  4.37 GB   |    Зарегистрирован:  4 года 1 месяц   |    .torrent скачан:  402 раза   |   
Раздают:  1  
   
Загрузка...
 
Автор Сообщение

LinGr

avatar LinGr


Riley Steele: Perfect Pet
Райли Стил: Идеальная кошечка




Год производства: 2009 г.
Страна: USA
Жанр: Gonzo, Straight
Продолжительность: 02:04:41

Режиссер: Robby D.
Студия: Digital Playground

Язык: Английский
В ролях: Britney Amber, Dakoda Brookes, Nika Noir, Riley Steele™ & Shawna Lenee

Описание:
Digital Playground's acclaimed director Robby D. creates a world of sexual servitude, where beautiful girls adorned in leather collars crawl around wanting to please their masters.
"Riley Steele: Perfect Pet" features Digital Playground contract star Riley Steele™ in three erotic scenes of submissive fucking, including a hot B/G/G!
Joining Riley on all fours are Shawna Lenee, Britney Amber, Dakoda Brookes & Nika Noir,
along with the hottest men in the industry Riley Steele™, Digital Playground's beautiful, blonde surfer babe, is the perfect pet to take home and play with.


Меню: Нет
Тип HD видео: 720p
Качество видео: BDRip
Формат видео: MKV
Видео кодек: H.264/AVC
Аудио кодек: AC3
Видео: 1280x720 16/9 29,970 fps 4 571 kbps
Аудио: AC3 5.1 48 kHz 448 kbps

General
Unique ID : 184225265797164752842674660507870466952 (0x8A987EDF0FB31419BAD464EA7C829388)
Complete name : D:\Riley.Steele.Perfect.Pet.XXX.720p.BluRay.x264-DD.mkv
Format : Matroska
Format version : Version 4 / Version 2
File size : 4.37 GiB
Duration : 2h 4mn
Overall bit rate : 5 022 Kbps
Encoded date : UTC 2013-10-05 12:21:38
Writing application : mkvmerge v6.1.0 ('Old Devil') built on Mar 2 2013 14:32:37
Writing library : libebml v1.3.0 + libmatroska v1.4.0

Video
ID : 1
Format : AVC
Format/Info : Advanced Video Codec
Format profile : High@L4.1
Format settings, CABAC : Yes
Format settings, ReFrames : 5 frames
Codec ID : V_MPEG4/ISO/AVC
Duration : 2h 4mn
Bit rate : 4 571 Kbps
Width : 1 280 pixels
Height : 720 pixels
Display aspect ratio : 16:9
Frame rate mode : Constant
Frame rate : 29.970 fps
Color space : YUV
Chroma subsampling : 4:2:0
Bit depth : 8 bits
Scan type : Progressive
Bits/(Pixel*Frame) : 0.165
Stream size : 3.90 GiB (89%)
Title : Riley.Steele.Perfect.Pet.XXX.720p.BluRay.x264-DD
Writing library : x264 core 133 r2334 a3ac64b
Encoding settings : cabac=1 / ref=5 / deblock=1:-3:-3 / analyse=0x3:0x113 / me=umh / subme=7 / psy=1 / psy_rd=1.00:0.00 / mixed_ref=1 / me_range=16 / chroma_me=1 / trellis=2 / 8x8dct=1 / cqm=0 / deadzone=21,11 / fast_pskip=1 / chroma_qp_offset=-2 / threads=3 / lookahead_threads=1 / sliced_threads=0 / nr=0 / decimate=1 / interlaced=0 / bluray_compat=0 / constrained_intra=0 / bframes=3 / b_pyramid=2 / b_adapt=2 / b_bias=0 / direct=3 / weightb=1 / open_gop=0 / weightp=2 / keyint=300 / keyint_min=29 / scenecut=40 / intra_refresh=0 / rc_lookahead=40 / rc=2pass / mbtree=1 / bitrate=4571 / ratetol=1.0 / qcomp=0.60 / qpmin=10 / qpmax=51 / qpstep=4 / cplxblur=20.0 / qblur=0.5 / vbv_maxrate=50000 / vbv_bufsize=50000 / nal_hrd=none / ip_ratio=1.40 / aq=1:1.00
Language : English
Default : Yes
Forced : No

Audio
ID : 2
Format : AC-3
Format/Info : Audio Coding 3
Mode extension : CM (complete main)
Format settings, Endianness : Big
Codec ID : A_AC3
Duration : 2h 4mn
Bit rate mode : Constant
Bit rate : 448 Kbps
Channel count : 6 channels
Channel positions : Front: L C R, Side: L R, LFE
Sampling rate : 48.0 KHz
Bit depth : 16 bits
Compression mode : Lossy
Stream size : 400 MiB (9%)
Title : AC3 5.1 448 kbps
Language : English
Default : Yes
Forced : No

Menu
00:00:00.000 : en:00:00:00.000
00:01:18.779 : en:00:01:18.779
00:08:40.620 : en:00:08:40.620
00:10:49.749 : en:00:10:49.749
00:21:35.528 : en:00:21:35.528
00:30:13.378 : en:00:30:13.378
00:44:35.673 : en:00:44:35.673
00:48:36.313 : en:00:48:36.313
00:51:30.654 : en:00:51:30.654
01:02:06.222 : en:01:02:06.222
01:05:05.635 : en:01:05:05.635
01:11:05.695 : en:01:11:05.695
01:21:48.103 : en:01:21:48.103
01:25:28.724 : en:01:25:28.724
01:28:28.336 : en:01:28:28.336
01:38:51.959 : en:01:38:51.959
01:41:06.394 : en:01:41:06.394
01:45:04.532 : en:01:45:04.532
02:03:37.310 : en:02:03:37.310


Трекер:  [ 07-Окт-2013 21:07 ]

  

Скачать .torrent

Размер .torrent файла 11 KB


Размер: 4.37 GB
Хэш (hash) релиза: 5fe95a4a290a091b030e55d707b30626741c9c0b

Еще никто не оставлял запись к записи скачать торрент Riley Steele: Perfect Pet Райли Стил: Идеальная кошечка . Будь первым!

!Обратная связь