Скачать через торрент музыку Гравитация Gravity бесплатно без регистрации torrent

Если у вас наблюдаются проблемы со скриншотами, переходом по ссылками, скачиванием торрентов - проблемы в блокировщике рекламы AdBlock. #хорошегоДня!


Статистика раздачи
Размер:  325 MB   |    Зарегистрирован:  3 года 9 месяцев   |    .torrent скачан:  57 раз   |   
Раздают:  1  
   
Загрузка...
 
Автор Сообщение

Galfimbul

avatar Galfimbul


Гравитация / Gravity

Жанр: Score
Композитор: Steven Price
Год выпуска диска: 2013
Страна-производитель диска: USA

Аудиокодек: FLAC (*.flac)
Тип рипа: tracks+.cue
Битрейт аудио: lossless
Продолжительность: 1:11:52

Источник: what.cd
Наличие сканов в содержимом раздачи: нет

Треклист:
01. Above Earth (1:50)
02. Debris (4:25)
03. The Void (6:16)
04. Atlantis (3:43)
05. Don''t Let Go (11:12)
06. Airlock (1:57)
07. ISS (2:53)
08. Fire (2:58)
09. Parachute (7:41)
10. In The Blind (3:08)
11. Aurora Borealis (1:43)
12. Aningaaq (5:09)
13. Soyuz (1:43)
14. Tiangong (6:28)
15. Shenzou (6:11)
16. Gravity (4:35)
X Lossless Decoder version 20130720 (144.0)

XLD extraction logfile from 2013-10-07 00:31:29 -0700

Steven Price / Gravity: Original Motion Picture Soundtrack

Used drive : MATSHITA DVD-R UJ-8A8 (revision HB14)Media type : Pressed CD

Ripper mode : XLD Secure RipperDisable audio cache : OK for the drive with a cache less than 1375KiBMake use of C2 pointers : NORead offset correction : 102Max retry count : 20Gap status : Analyzed, Appended (except HTOA)

TOC of the extracted CD Track | Start | Length | Start sector | End sector --------------------------------------------------------- 1 | 00:00:00 | 01:50:24 | 0 | 8273 2 | 01:50:24 | 04:24:38 | 8274 | 28111 3 | 06:14:62 | 06:15:62 | 28112 | 56298 4 | 12:30:49 | 03:43:03 | 56299 | 73026 5 | 16:13:52 | 11:11:41 | 73027 | 123392 6 | 27:25:18 | 01:57:37 | 123393 | 132204 7 | 29:22:55 | 02:53:26 | 132205 | 145205 8 | 32:16:06 | 02:57:65 | 145206 | 158545 9 | 35:13:71 | 07:40:52 | 158546 | 193097 10 | 42:54:48 | 03:07:43 | 193098 | 207165 11 | 46:02:16 | 01:43:14 | 207166 | 214904 12 | 47:45:30 | 05:08:54 | 214905 | 238058 13 | 52:54:09 | 01:42:69 | 238059 | 245777 14 | 54:37:03 | 06:28:34 | 245778 | 274911 15 | 61:05:37 | 06:11:15 | 274912 | 302751 16 | 67:16:52 | 04:35:24 | 302752 | 323400

AccurateRip Summary Disc not found in AccurateRip DB.

All Tracks Album gain : -2.11 dB Peak : 0.980682 Statistics Read error : 0 Jitter error (maybe fixed) : 0 Retry sector count : 0 Damaged sector count : 0

Track 01 Filename : /Users/colemontgomery/Desktop/Steven Price - Gravityпјљ Original Motion Picture Soundtrack (2013) [320]/01 Above Earth.mp3 /Users/colemontgomery/Desktop/Steven Price - Gravityпјљ Original Motion Picture Soundtrack (2013) [FLAC]/01 Above Earth.flac /Users/colemontgomery/Desktop/Steven Price - Gravityпјљ Original Motion Picture Soundtrack (2013) [Apple Lossless]/01 Above Earth.m4a Pre-gap length : 00:02:00

Track gain : 5.82 dB Peak : 0.980682 CRC32 hash (test run) : 959A1B20 CRC32 hash : 959A1B20 CRC32 hash (skip zero) : C368C20E AccurateRip v1 signature : 77C9C35F AccurateRip v2 signature : EA24FBD3 ->Track not present in AccurateRip database. Statistics Read error : 0 Jitter error (maybe fixed) : 0 Retry sector count : 0 Damaged sector count : 0

Track 02 Filename : /Users/colemontgomery/Desktop/Steven Price - Gravityпјљ Original Motion Picture Soundtrack (2013) [320]/02 Debris.mp3 /Users/colemontgomery/Desktop/Steven Price - Gravityпјљ Original Motion Picture Soundtrack (2013) [FLAC]/02 Debris.flac /Users/colemontgomery/Desktop/Steven Price - Gravityпјљ Original Motion Picture Soundtrack (2013) [Apple Lossless]/02 Debris.m4a

Track gain : -2.01 dB Peak : 0.980682 CRC32 hash (test run) : 085D5FC8 CRC32 hash : 085D5FC8 CRC32 hash (skip zero) : 1C4D78A6 AccurateRip v1 signature : 1016755C AccurateRip v2 signature : 214FCA47 ->Track not present in AccurateRip database. Statistics Read error : 0 Jitter error (maybe fixed) : 0 Retry sector count : 0 Damaged sector count : 0

Track 03 Filename : /Users/colemontgomery/Desktop/Steven Price - Gravityпјљ Original Motion Picture Soundtrack (2013) [320]/03 The Void.mp3 /Users/colemontgomery/Desktop/Steven Price - Gravityпјљ Original Motion Picture Soundtrack (2013) [FLAC]/03 The Void.flac /Users/colemontgomery/Desktop/Steven Price - Gravityпјљ Original Motion Picture Soundtrack (2013) [Apple Lossless]/03 The Void.m4a

Track gain : 1.53 dB Peak : 0.980682 CRC32 hash (test run) : C5D80768 CRC32 hash : C5D80768 CRC32 hash (skip zero) : F39E3303 AccurateRip v1 signature : EBAA6948 AccurateRip v2 signature : 501706F3 ->Track not present in AccurateRip database. Statistics Read error : 0 Jitter error (maybe fixed) : 0 Retry sector count : 0 Damaged sector count : 0

Track 04 Filename : /Users/colemontgomery/Desktop/Steven Price - Gravityпјљ Original Motion Picture Soundtrack (2013) [320]/04 Atlantis.mp3 /Users/colemontgomery/Desktop/Steven Price - Gravityпјљ Original Motion Picture Soundtrack (2013) [FLAC]/04 Atlantis.flac /Users/colemontgomery/Desktop/Steven Price - Gravityпјљ Original Motion Picture Soundtrack (2013) [Apple Lossless]/04 Atlantis.m4a

Track gain : 2.85 dB Peak : 0.980621 CRC32 hash (test run) : B83B98CF CRC32 hash : B83B98CF CRC32 hash (skip zero) : 6B62F961 AccurateRip v1 signature : 1860484B AccurateRip v2 signature : 2EBDDAEC ->Track not present in AccurateRip database. Statistics Read error : 0 Jitter error (maybe fixed) : 0 Retry sector count : 0 Damaged sector count : 0

Track 05 Filename : /Users/colemontgomery/Desktop/Steven Price - Gravityпјљ Original Motion Picture Soundtrack (2013) [320]/05 Don''t Let Go.mp3 /Users/colemontgomery/Desktop/Steven Price - Gravityпјљ Original Motion Picture Soundtrack (2013) [FLAC]/05 Don''t Let Go.flac /Users/colemontgomery/Desktop/Steven Price - Gravityпјљ Original Motion Picture Soundtrack (2013) [Apple Lossless]/05 Don''t Let Go.m4a

Track gain : -0.75 dB Peak : 0.980682 CRC32 hash (test run) : DB29EC05 CRC32 hash : DB29EC05 CRC32 hash (skip zero) : 96FE267C AccurateRip v1 signature : 6AECDF71 AccurateRip v2 signature : 0429B1E6 ->Track not present in AccurateRip database. Statistics Read error : 0 Jitter error (maybe fixed) : 0 Retry sector count : 0 Damaged sector count : 0

Track 06 Filename : /Users/colemontgomery/Desktop/Steven Price - Gravityпјљ Original Motion Picture Soundtrack (2013) [320]/06 Airlock.mp3 /Users/colemontgomery/Desktop/Steven Price - Gravityпјљ Original Motion Picture Soundtrack (2013) [FLAC]/06 Airlock.flac /Users/colemontgomery/Desktop/Steven Price - Gravityпјљ Original Motion Picture Soundtrack (2013) [Apple Lossless]/06 Airlock.m4a

Track gain : 8.47 dB Peak : 0.278839 CRC32 hash (test run) : 2131C751 CRC32 hash : 2131C751 CRC32 hash (skip zero) : 96A894CE AccurateRip v1 signature : 218DC48A AccurateRip v2 signature : AB165751 ->Track not present in AccurateRip database. Statistics Read error : 0 Jitter error (maybe fixed) : 0 Retry sector count : 0 Damaged sector count : 0

Track 07 Filename : /Users/colemontgomery/Desktop/Steven Price - Gravityпјљ Original Motion Picture Soundtrack (2013) [320]/07 ISS.mp3 /Users/colemontgomery/Desktop/Steven Price - Gravityпјљ Original Motion Picture Soundtrack (2013) [FLAC]/07 ISS.flac /Users/colemontgomery/Desktop/Steven Price - Gravityпјљ Original Motion Picture Soundtrack (2013) [Apple Lossless]/07 ISS.m4a

Track gain : 8.51 dB Peak : 0.327759 CRC32 hash (test run) : C8A5893E CRC32 hash : C8A5893E CRC32 hash (skip zero) : 526C4461 AccurateRip v1 signature : 4EB1C137 AccurateRip v2 signature : E2B2382E ->Track not present in AccurateRip database. Statistics Read error : 0 Jitter error (maybe fixed) : 0 Retry sector count : 0 Damaged sector count : 0

Track 08 Filename : /Users/colemontgomery/Desktop/Steven Price - Gravityпјљ Original Motion Picture Soundtrack (2013) [320]/08 Fire.mp3 /Users/colemontgomery/Desktop/Steven Price - Gravityпјљ Original Motion Picture Soundtrack (2013) [FLAC]/08 Fire.flac /Users/colemontgomery/Desktop/Steven Price - Gravityпјљ Original Motion Picture Soundtrack (2013) [Apple Lossless]/08 Fire.m4a

Track gain : -1.71 dB Peak : 0.980682 CRC32 hash (test run) : 9967DD09 CRC32 hash : 9967DD09 CRC32 hash (skip zero) : A4AF9E57 AccurateRip v1 signature : 3BF8B17F AccurateRip v2 signature : 81F6DC27 ->Track not present in AccurateRip database. Statistics Read error : 0 Jitter error (maybe fixed) : 0 Retry sector count : 0 Damaged sector count : 0

Track 09 Filename : /Users/colemontgomery/Desktop/Steven Price - Gravityпјљ Original Motion Picture Soundtrack (2013) [320]/09 Parachute.mp3 /Users/colemontgomery/Desktop/Steven Price - Gravityпјљ Original Motion Picture Soundtrack (2013) [FLAC]/09 Parachute.flac /Users/colemontgomery/Desktop/Steven Price - Gravityпјљ Original Motion Picture Soundtrack (2013) [Apple Lossless]/09 Parachute.m4a

Track gain : -1.16 dB Peak : 0.980682 CRC32 hash (test run) : 7C68D6D7 CRC32 hash : 7C68D6D7 CRC32 hash (skip zero) : 2B9F41C5 AccurateRip v1 signature : 792EFA35 AccurateRip v2 signature : EDFC9812 ->Track not present in AccurateRip database. Statistics Read error : 0 Jitter error (maybe fixed) : 0 Retry sector count : 0 Damaged sector count : 0

Track 10 Filename : /Users/colemontgomery/Desktop/Steven Price - Gravityпјљ Original Motion Picture Soundtrack (2013) [320]/10 In The Blind.mp3 /Users/colemontgomery/Desktop/Steven Price - Gravityпјљ Original Motion Picture Soundtrack (2013) [FLAC]/10 In The Blind.flac /Users/colemontgomery/Desktop/Steven Price - Gravityпјљ Original Motion Picture Soundtrack (2013) [Apple Lossless]/10 In The Blind.m4a

Track gain : 5.72 dB Peak : 0.980682 CRC32 hash (test run) : F5490A9E CRC32 hash : F5490A9E CRC32 hash (skip zero) : 48FA0722 AccurateRip v1 signature : B9F0CADE AccurateRip v2 signature : BBADDB33 ->Track not present in AccurateRip database. Statistics Read error : 0 Jitter error (maybe fixed) : 0 Retry sector count : 0 Damaged sector count : 0

Track 11 Filename : /Users/colemontgomery/Desktop/Steven Price - Gravityпјљ Original Motion Picture Soundtrack (2013) [320]/11 Aurora Borealis.mp3 /Users/colemontgomery/Desktop/Steven Price - Gravityпјљ Original Motion Picture Soundtrack (2013) [FLAC]/11 Aurora Borealis.flac /Users/colemontgomery/Desktop/Steven Price - Gravityпјљ Original Motion Picture Soundtrack (2013) [Apple Lossless]/11 Aurora Borealis.m4a

Track gain : 12.43 dB Peak : 0.206757 CRC32 hash (test run) : C257ADC2 CRC32 hash : C257ADC2 CRC32 hash (skip zero) : 1F8E0F4A AccurateRip v1 signature : 3B9FF2A1 AccurateRip v2 signature : E06070B7 ->Track not present in AccurateRip database. Statistics Read error : 0 Jitter error (maybe fixed) : 0 Retry sector count : 0 Damaged sector count : 0

Track 12 Filename : /Users/colemontgomery/Desktop/Steven Price - Gravityпјљ Original Motion Picture Soundtrack (2013) [320]/12 Aningaaq.mp3 /Users/colemontgomery/Desktop/Steven Price - Gravityпјљ Original Motion Picture Soundtrack (2013) [FLAC]/12 Aningaaq.flac /Users/colemontgomery/Desktop/Steven Price - Gravityпјљ Original Motion Picture Soundtrack (2013) [Apple Lossless]/12 Aningaaq.m4a

Track gain : 7.93 dB Peak : 0.980682 CRC32 hash (test run) : 30F91874 CRC32 hash : 30F91874 CRC32 hash (skip zero) : C45A60D5 AccurateRip v1 signature : 9B78C57C AccurateRip v2 signature : AD9EAB4E ->Track not present in AccurateRip database. Statistics Read error : 0 Jitter error (maybe fixed) : 0 Retry sector count : 0 Damaged sector count : 0

Track 13 Filename : /Users/colemontgomery/Desktop/Steven Price - Gravityпјљ Original Motion Picture Soundtrack (2013) [320]/13 Soyuz.mp3 /Users/colemontgomery/Desktop/Steven Price - Gravityпјљ Original Motion Picture Soundtrack (2013) [FLAC]/13 Soyuz.flac /Users/colemontgomery/Desktop/Steven Price - Gravityпјљ Original Motion Picture Soundtrack (2013) [Apple Lossless]/13 Soyuz.m4a Pre-gap length : 00:00:25

Track gain : 9.61 dB Peak : 0.314484 CRC32 hash (test run) : 8FE4DEFD CRC32 hash : 8FE4DEFD CRC32 hash (skip zero) : 3BB2C141 AccurateRip v1 signature : FB0E2228 AccurateRip v2 signature : AD6A662E ->Track not present in AccurateRip database. Statistics Read error : 0 Jitter error (maybe fixed) : 0 Retry sector count : 0 Damaged sector count : 0

Track 14 Filename : /Users/colemontgomery/Desktop/Steven Price - Gravityпјљ Original Motion Picture Soundtrack (2013) [320]/14 Tiangong.mp3 /Users/colemontgomery/Desktop/Steven Price - Gravityпјљ Original Motion Picture Soundtrack (2013) [FLAC]/14 Tiangong.flac /Users/colemontgomery/Desktop/Steven Price - Gravityпјљ Original Motion Picture Soundtrack (2013) [Apple Lossless]/14 Tiangong.m4a

Track gain : -2.42 dB Peak : 0.980652 CRC32 hash (test run) : 4CB46325 CRC32 hash : 4CB46325 CRC32 hash (skip zero) : 3491D069 AccurateRip v1 signature : 34759AF0 AccurateRip v2 signature : 5B2D8059 ->Track not present in AccurateRip database. Statistics Read error : 0 Jitter error (maybe fixed) : 0 Retry sector count : 0 Damaged sector count : 0

Track 15 Filename : /Users/colemontgomery/Desktop/Steven Price - Gravityпјљ Original Motion Picture Soundtrack (2013) [320]/15 Shenzou.mp3 /Users/colemontgomery/Desktop/Steven Price - Gravityпјљ Original Motion Picture Soundtrack (2013) [FLAC]/15 Shenzou.flac /Users/colemontgomery/Desktop/Steven Price - Gravityпјљ Original Motion Picture Soundtrack (2013) [Apple Lossless]/15 Shenzou.m4a Pre-gap length : 00:01:18

Track gain : -4.76 dB Peak : 0.980682 CRC32 hash (test run) : 9274C50B CRC32 hash : 9274C50B CRC32 hash (skip zero) : 3284526F AccurateRip v1 signature : D70E93F7 AccurateRip v2 signature : 9F7C03B7 ->Track not present in AccurateRip database. Statistics Read error : 0 Jitter error (maybe fixed) : 0 Retry sector count : 0 Damaged sector count : 0

Track 16 Filename : /Users/colemontgomery/Desktop/Steven Price - Gravityпјљ Original Motion Picture Soundtrack (2013) [320]/16 Gravity.mp3 /Users/colemontgomery/Desktop/Steven Price - Gravityпјљ Original Motion Picture Soundtrack (2013) [FLAC]/16 Gravity.flac /Users/colemontgomery/Desktop/Steven Price - Gravityпјљ Original Motion Picture Soundtrack (2013) [Apple Lossless]/16 Gravity.m4a

Track gain : -5.42 dB Peak : 0.980682 CRC32 hash (test run) : 86B2CD8E CRC32 hash : 86B2CD8E CRC32 hash (skip zero) : 50A7E904 AccurateRip v1 signature : 11C678B9 AccurateRip v2 signature : A94C319C ->Track not present in AccurateRip database. Statistics Read error : 0 Jitter error (maybe fixed) : 0 Retry sector count : 0 Damaged sector count : 0

No errors occurred

End of status report
TITLE "Gravity: Original Motion Picture Soundtrack"PERFORMER "Steven Price"CATALOG 0794043172939REM GENRE "Soundtrack"REM DATE "2013"REM DISCNUMBER 1REM TOTALDISCS 1REM DISCID 0510D810REM REPLAYGAIN_ALBUM_GAIN -2.11 dBREM REPLAYGAIN_ALBUM_PEAK 0.980682FILE "01 Above Earth.flac" WAVE TRACK 01 AUDIO TITLE "Above Earth" ISRC USNLR1300548 REM REPLAYGAIN_TRACK_GAIN 5.82 dB REM REPLAYGAIN_TRACK_PEAK 0.980682 INDEX 01 00:00:00FILE "02 Debris.flac" WAVE TRACK 02 AUDIO TITLE "Debris" ISRC USNLR1300549 REM REPLAYGAIN_TRACK_GAIN -2.01 dB REM REPLAYGAIN_TRACK_PEAK 0.980682 INDEX 01 00:00:00FILE "03 The Void.flac" WAVE TRACK 03 AUDIO TITLE "The Void" ISRC USNLR1300550 REM REPLAYGAIN_TRACK_GAIN 1.53 dB REM REPLAYGAIN_TRACK_PEAK 0.980682 INDEX 01 00:00:00FILE "04 Atlantis.flac" WAVE TRACK 04 AUDIO TITLE "Atlantis" ISRC USNLR1300551 REM REPLAYGAIN_TRACK_GAIN 2.85 dB REM REPLAYGAIN_TRACK_PEAK 0.980621 INDEX 01 00:00:00FILE "05 Don''t Let Go.flac" WAVE TRACK 05 AUDIO TITLE "Don''t Let Go" ISRC USNLR1300552 REM REPLAYGAIN_TRACK_GAIN -0.75 dB REM REPLAYGAIN_TRACK_PEAK 0.980682 INDEX 01 00:00:00FILE "06 Airlock.flac" WAVE TRACK 06 AUDIO TITLE "Airlock" ISRC USNLR1300553 REM REPLAYGAIN_TRACK_GAIN 8.47 dB REM REPLAYGAIN_TRACK_PEAK 0.278839 INDEX 01 00:00:00FILE "07 ISS.flac" WAVE TRACK 07 AUDIO TITLE "ISS" ISRC USNLR1300554 REM REPLAYGAIN_TRACK_GAIN 8.51 dB REM REPLAYGAIN_TRACK_PEAK 0.327759 INDEX 01 00:00:00FILE "08 Fire.flac" WAVE TRACK 08 AUDIO TITLE "Fire" ISRC USNLR1300555 REM REPLAYGAIN_TRACK_GAIN -1.71 dB REM REPLAYGAIN_TRACK_PEAK 0.980682 INDEX 01 00:00:00FILE "09 Parachute.flac" WAVE TRACK 09 AUDIO TITLE "Parachute" ISRC USNLR1300556 REM REPLAYGAIN_TRACK_GAIN -1.16 dB REM REPLAYGAIN_TRACK_PEAK 0.980682 INDEX 01 00:00:00FILE "10 In The Blind.flac" WAVE TRACK 10 AUDIO TITLE "In The Blind" ISRC USNLR1300557 REM REPLAYGAIN_TRACK_GAIN 5.72 dB REM REPLAYGAIN_TRACK_PEAK 0.980682 INDEX 01 00:00:00FILE "11 Aurora Borealis.flac" WAVE TRACK 11 AUDIO TITLE "Aurora Borealis" ISRC USNLR1300558 REM REPLAYGAIN_TRACK_GAIN 12.43 dB REM REPLAYGAIN_TRACK_PEAK 0.206757 INDEX 01 00:00:00FILE "12 Aningaaq.flac" WAVE TRACK 12 AUDIO TITLE "Aningaaq" ISRC USNLR1300559 REM REPLAYGAIN_TRACK_GAIN 7.93 dB REM REPLAYGAIN_TRACK_PEAK 0.980682 INDEX 01 00:00:00 TRACK 13 AUDIO TITLE "Soyuz" ISRC USNLR1300560 REM REPLAYGAIN_TRACK_GAIN 9.61 dB REM REPLAYGAIN_TRACK_PEAK 0.314484 INDEX 00 05:08:29FILE "13 Soyuz.flac" WAVE INDEX 01 00:00:00FILE "14 Tiangong.flac" WAVE TRACK 14 AUDIO TITLE "Tiangong" ISRC USNLR1300561 REM REPLAYGAIN_TRACK_GAIN -2.42 dB REM REPLAYGAIN_TRACK_PEAK 0.980652 INDEX 01 00:00:00 TRACK 15 AUDIO TITLE "Shenzou" ISRC USNLR1300562 REM REPLAYGAIN_TRACK_GAIN -4.76 dB REM REPLAYGAIN_TRACK_PEAK 0.980682 INDEX 00 06:27:16FILE "15 Shenzou.flac" WAVE INDEX 01 00:00:00FILE "16 Gravity.flac" WAVE TRACK 16 AUDIO TITLE "Gravity" ISRC USNLR1300563 REM REPLAYGAIN_TRACK_GAIN -5.42 dB REM REPLAYGAIN_TRACK_PEAK 0.980682 INDEX 01 00:00:00
AUDIOCHECKER v2.0 beta (build 457) - by Dester - opdester@freemail.hu~~~~~~~~~~~~~~~~~~~~~~~~~~~~~~~~~~-=== НЕ РЕДАКТИРУЙТЕ ЭТОТ ФАЙЛ! ===-

Путь: ...\Steven Price - Gravity. Original Motion Picture Soundtrack (2013) [FLAC]

01 -=- 01 Above Earth.flac -=- CDDA (100%)02 -=- 02 Debris.flac -=- CDDA (100%)03 -=- 03 The Void.flac -=- CDDA (100%)04 -=- 04 Atlantis.flac -=- CDDA (100%)05 -=- 05 Don''t Let Go.flac -=- CDDA (100%)06 -=- 06 Airlock.flac -=- CDDA (100%)07 -=- 07 ISS.flac -=- CDDA (99%)08 -=- 08 Fire.flac -=- CDDA (100%)09 -=- 09 Parachute.flac -=- CDDA (100%)10 -=- 10 In The Blind.flac -=- CDDA (100%)11 -=- 11 Aurora Borealis.flac -=- CDDA (100%)12 -=- 12 Aningaaq.flac -=- CDDA (100%)13 -=- 13 Soyuz.flac -=- CDDA (99%)14 -=- 14 Tiangong.flac -=- CDDA (100%)15 -=- 15 Shenzou.flac -=- CDDA (99%)16 -=- 16 Gravity.flac -=- CDDA (100%)

Сводка 99,81% CDDA

79936852



Трекер:  [ 14-Дек-2013 21:44 ]

  

Скачать .torrent

Размер .torrent файла 14 KB


Размер: 325 MB
Хэш (hash) релиза: aeeb8c3c04b7a2ed371c27e47f6a04ae5cdb3898

bot

Топик был перенесен в форум Саундтреки к фильмам и мультфильмам (lossless)

Перенес Galfimbul

Хотите добавить комментарий к записи скачать торрент Гравитация Gravity

!Обратная связь