- torrent

, , - AdBlock. #!


25.48 GB   |    :  3 10    |    .torrent :  63    |   
1  
   
...
 

Polarnik

avatar Polarnik



:
: 1999 .
: , , ,
: TV
: 24 /
:
:
: , , : ? , . !. , , ...

, -, , - . , , . - . - , . , . , , , . .

, , !

. : One piece Special edition - One Piece HDTV . 46, 47, 50, 51 . - .
: HDTVRip
:
: MP4 (001-017, 031-053), MKV (018-030)
:
: H.264; 1280x720; 23.976 fps; 8 bits; ~2700 kbps;
: AAC; 48KHz; 2 channels; ~192kbps; :
: SRT, (: Prosya, Gurcha, Helix Group)
001. - ! , !
002. ! - .
003. vs ! ?
004. ! .
005. , ! !
006. ! vs .
007. vs !
008. ? !
009. ? .
010. ! -!
011. ! -, !
012. ! !
013. ! vs .
014. ! -.
015. ! !
016. ! !
017. ! vs , !
018. - ! .
019. ! !
020. ! .
021. ! .
022. . .
023. ! , .
024. ! !
025. ! vs , .
026. - -.
027. , : !
028. ! : !
029. ! !
030. : - !
031. East Blue, .
032. . .
033. ?! - ?
034. ! .
035. ! -,
036. ! - !
037. ! !
038. ! vs !
039. ! vs !
040. , ! !
041. ! .
042. ! !
043. ! - !!
044. ! , !
045. !! " " !
046. ! !
047. ! !
048. . .
049. ! -.
050. . !
051. ! -!
052. ! , !
053. ! .
Format : MPEG-4
Format profile : Base Media
Codec ID : isom
File size : 384 MiB
Duration : 24mn 5s
Overall bit rate mode : Variable
Overall bit rate : 2 228 Kbps
Encoded date : UTC 2012-04-07 09:17:30
Tagged date : UTC 2012-04-07 09:17:30

Video
ID : 1
Format : AVC
Format/Info : Advanced Video Codec
Format profile : High@L3.1
Format settings, CABAC : Yes
Format settings, ReFrames : 3 frames
Codec ID : avc1
Codec ID/Info : Advanced Video Coding
Duration : 24mn 4s
Bit rate : 2 030 Kbps
Maximum bit rate : 6 645 Kbps
Width : 1 280 pixels
Height : 720 pixels
Display aspect ratio : 16:9
Frame rate mode : Constant
Frame rate : 23.976 fps
Color space : YUV
Chroma subsampling : 4:2:0
Bit depth : 8 bits
Scan type : Progressive
Bits/(Pixel*Frame) : 0.092
Stream size : 350 MiB (91%)
Writing library : x264 core 65 r999kMod cc51047
Encoding settings : cabac=1 / ref=3 / deblock=1:0:0 / analyse=0x3:0x133 / me=umh / subme=6 / psy_rd=1.0:0.0 / mixed_ref=1 /
me_range=16 / chroma_me=1 / trellis=1 / 8x8dct=1 / cqm=0 / deadzone=21,11 / chroma_qp_offset=-2 / threads=2 / thread_queue=2 / nr=0 /
decimate=1 / mbaff=0 / bframes=3 / b_pyramid=0 / b_adapt=1 / b_bias=0 / direct=1 / wpredb=1 / keyint=250 / keyint_min=25 / scenecut=40(pre) /
rc=crf / crf=21.0000 / qcomp=0.60 / qpmin=10 / qpmax=51 / qpstep=4 / ip_ratio=1.40 / pb_ratio=1.30 / aq=1:1.00
Encoded date : UTC 2012-04-07 09:17:30
Tagged date : UTC 2012-04-07 09:20:46

Audio
ID : 2
Format : AAC
Format/Info : Advanced Audio Codec
Format profile : LC
Codec ID : 40
Duration : 24mn 5s
Bit rate mode : Variable
Bit rate : 192 Kbps
Maximum bit rate : 227 Kbps
Channel count : 2 channels
Channel positions : Front: L R
Sampling rate : 48.0 KHz
Compression mode : Lossy
Stream size : 33.4 MiB (9%)
Encoded date : UTC 2012-04-07 09:20:45
Tagged date : UTC 2012-04-07 09:20:46
Format : Matroska
Format version : Version 2
File size : 671 MiB
Duration : 24mn 15s
Overall bit rate : 3 868 Kbps
Encoded date : UTC 2012-08-04 23:35:22
Writing application : mkvmerge v5.7.0 (''The Whirlwind'') built on Jul 8 2012 20:08:51
Writing library : libebml v1.2.3 + libmatroska v1.3.0

Video
ID : 1
Format : AVC
Format/Info : Advanced Video Codec
Format profile : High@L4.1
Format settings, CABAC : Yes
Format settings, ReFrames : 4 frames
Muxing mode : Header stripping
Codec ID : V_MPEG4/ISO/AVC
Duration : 24mn 14s
Width : 1 280 pixels
Height : 720 pixels
Display aspect ratio : 16:9
Frame rate mode : Constant
Frame rate : 23.976 fps
Color space : YUV
Chroma subsampling : 4:2:0
Bit depth : 8 bits
Scan type : Progressive
Writing library : x264 core 125 r2200 999b753
Encoding settings : cabac=1 / ref=3 / deblock=1:0:0 / analyse=0x3:0x113 / me=hex / subme=7 / psy=1 / psy_rd=1.00:0.00 /
mixed_ref=1 / me_range=16 / chroma_me=1 / trellis=1 / 8x8dct=1 / cqm=0 / deadzone=21,11 / fast_pskip=1 / chroma_qp_offset=-2 / threads=3 /
lookahead_threads=1 / sliced_threads=0 / nr=0 / decimate=1 / interlaced=0 / bluray_compat=0 / constrained_intra=0 / bframes=3 / b_pyramid=2 /
b_adapt=1 / b_bias=0 / direct=1 / weightb=1 / open_gop=0 / weightp=2 / keyint=240 / keyint_min=23 / scenecut=40 / intra_refresh=0 /
rc_lookahead=40 / rc=crf / mbtree=1 / crf=18.6 / qcomp=0.60 / qpmin=10 / qpmax=51 / qpstep=4 / vbv_maxrate=50000 / vbv_bufsize=50000 /
crf_max=0.0 / nal_hrd=none / ip_ratio=1.40 / aq=1:1.00
Default : Yes
Forced : No

Audio
ID : 2
Format : AAC
Format/Info : Advanced Audio Codec
Format profile : LC
Codec ID : A_AAC
Duration : 24mn 15s
Channel count : 2 channels
Channel positions : Front: L R
Sampling rate : 48.0 KHz
Compression mode : Lossy
Delay relative to video : 9ms
Title : Japanese AAC 2.0
Language : Japanese
Default : Yes
Forced : No
Format : MPEG-4
Format profile : Base Media
Codec ID : isom
File size : 521 MiB
Duration : 24mn 14s
Overall bit rate mode : Variable
Overall bit rate : 3 004 Kbps
Encoded date : UTC 2012-11-12 08:49:00
Tagged date : UTC 2012-11-12 08:49:00

Video
ID : 1
Format : AVC
Format/Info : Advanced Video Codec
Format profile : High@L4.1
Format settings, CABAC : Yes
Format settings, ReFrames : 6 frames
Codec ID : avc1
Codec ID/Info : Advanced Video Coding
Duration : 24mn 14s
Bit rate : 2 787 Kbps
Maximum bit rate : 11.7 Mbps
Width : 1 280 pixels
Height : 720 pixels
Display aspect ratio : 16:9
Frame rate mode : Constant
Frame rate : 23.976 fps
Color space : YUV
Chroma subsampling : 4:2:0
Bit depth : 8 bits
Scan type : Progressive
Bits/(Pixel*Frame) : 0.126
Stream size : 483 MiB (93%)
Writing library : x264 core 125 r2200 999b753
Encoding settings : cabac=1 / ref=6 / deblock=1:1:1 / analyse=0x3:0x133 / me=tesa / subme=10 / psy=1 / psy_rd=0.40:0.00 /
mixed_ref=1 / me_range=32 / chroma_me=1 / trellis=2 / 8x8dct=1 / cqm=0 / deadzone=21,11 / fast_pskip=0 / chroma_qp_offset=-2 / threads=3 /
lookahead_threads=1 / sliced_threads=0 / nr=0 / decimate=1 / interlaced=0 / bluray_compat=0 / constrained_intra=0 / bframes=5 / b_pyramid=2 /
b_adapt=1 / b_bias=0 / direct=3 / weightb=1 / open_gop=0 / weightp=2 / keyint=250 / keyint_min=23 / scenecut=40 / intra_refresh=0 /
rc_lookahead=60 / rc=crf / mbtree=1 / crf=18.5 / qcomp=0.60 / qpmin=0 / qpmax=69 / qpstep=4 / ip_ratio=1.40 / aq=1:0.60
Encoded date : UTC 2012-11-12 08:49:00
Tagged date : UTC 2012-11-12 08:49:40

Audio
ID : 2
Format : AAC
Format/Info : Advanced Audio Codec
Format profile : LC
Codec ID : 40
Duration : 24mn 14s
Bit rate mode : Variable
Bit rate : 214 Kbps
Maximum bit rate : 251 Kbps
Channel count : 2 channels
Channel positions : Front: L R
Sampling rate : 48.0 KHz
Compression mode : Lossy
Delay relative to video : 83ms
Stream size : 37.1 MiB (7%)
Encoded date : UTC 2012-11-12 08:49:39
Tagged date : UTC 2012-11-12 08:49:40


 ·  , , FAQ-
:  [ 09--2013 16:21 ]

  

.torrent

.torrent 140 KB


: 25.48 GB
(hash) : 81f588d0a998782ef4139e1ef7c0d3f46a91961c
:
··
...

- . !

!