Скачать порно через торрент A Certain Molestific Mikoto - Express Assault UnionPeer.org бесплатно онлайн HD качество

Скачать новое порно 2015, 2014 новинки через торрент UnionPeer.org

Порно торрент бесплатно ЮнионПир.орг

Если у вас наблюдаются проблемы со скриншотами, переходом по ссылками, скачиванием торрентов - проблемы в блокировщике рекламы AdBlock. #хорошегоДня!


Статистика раздачи
Размер:  459 MB   |    Зарегистрирован:  4 года 1 месяц   |    .torrent скачан:  723 раза   |   
Раздают:  1  
   
Загрузка...
 
Автор Сообщение

LinGr

avatar LinGr


A Certain Molestific Mikoto - Express Assault / とある美琴の痴漢電車 陵辱急行
Год производства: 2013 г.
Жанр: Dirty Talk, Uniform, Molestation
Продолжительность: 11:31
Цензура: Есть во всех файлах

Язык: Японский
Озвучка: Оригинальная
Субтитры: Встроенные неотключаемые (хардсаб)

Студия: @oz | DLLSite


Описание:
Студия @oz как всегда на высоте и сделала ещё одну хорошую игру с которой получился классный GameRip.
Всем фанатам, которым нравится, как на милую девушку нападает толпа голодных до секса в поезде.

Качество видео: GameRip
Формат видео: WMV
Видео кодек: Windows Media
Аудио кодек: WMA
Видео: Windows Media Video 9 848x476 30fps 5105kbps
Аудио 1: WMA Pro 44100Hz stereo 440kbps

Video
ID : 1
Format : VC-1
Format profile : MP@HL
Codec ID : WMV3
Codec ID/Info : Windows Media Video 9
Codec ID/Hint : WMV3
Description of the codec : Windows Media Video 9
Duration : 11mn 31s
Bit rate mode : Variable
Bit rate : 5 106 Kbps
Width : 848 pixels
Height : 476 pixels
Display aspect ratio : 16:9
Frame rate : 30.000 fps
Bit depth : 8 bits
Scan type : Progressive
Compression mode : Lossy
Bits/(Pixel*Frame) : 0.422
Stream size : 421 MiB (92%)
Language : Latvian

Audio
ID : 2
Format : WMA
Format profile : Pro
Codec ID : 162
Codec ID/Info : Windows Media Audio
Description of the codec : Windows Media Audio 10 Professional - 440 kbps, 44 kHz, 2 channel 24 bit (A/V) 1-pass CBR
Duration : 11mn 31s
Bit rate mode : Constant
Bit rate : 440 Kbps
Channel(s) : 2 channels
Sampling rate : 44.1 KHz
Bit depth : 24 bits
Stream size : 36.3 MiB (8%)


Трекер:  [ 06-Окт-2013 12:28 ]

  

Скачать .torrent

Размер .torrent файла 18 KB


Размер: 459 MB
Хэш (hash) релиза: c47817544a7e46ee057d295dbc22d25114680028

bot

Топик был перенесен в форум Хентай | С цензурой

Перенес LinGr

Хотите добавить комментарий к записи скачать торрент A Certain Molestific Mikoto - Express Assault

!Обратная связь