Скачать порно через торрент Joshikousei no Koshitsuki Извивающиеся школьницы UnionPeer.org бесплатно онлайн HD качество

Скачать новое порно 2015, 2014 новинки через торрент UnionPeer.org

Порно торрент бесплатно ЮнионПир.орг

Если у вас наблюдаются проблемы со скриншотами, переходом по ссылками, скачиванием торрентов - проблемы в блокировщике рекламы AdBlock. #хорошегоДня!


Статистика раздачи
Размер:  1.14 GB   |    Зарегистрирован:  4 года 1 месяц   |    .torrent скачан:  247 раз   |   
Раздают:  2  
   
Загрузка...
 
Автор Сообщение

LinGr

avatar LinGr


Joshikousei no Koshitsuki / 女子高生の腰つき
Извивающиеся школьницы / Между ножек старшеклассниц / Мокрые школьницы

Год производства: 2013 г.
Жанр: Big tits, Group sex, Oral sex, Titsjob, School, Virgin, Toys
Серии: ep. 1 of 2
Продолжительность: 1х~17 min + 5 min трейлеры
Цензура: Есть

Озвучка: Японская (Оригинальная)

Режиссер: Kasahara Shinpei
Автор оригинала: Otono Natsu
Студия: Mary Jane, Studio Eromatick

Описание RUS:
Девушка соблазняет своего тренера по волейболу, после занятия волейболом,
они занимаются сексом, эту картину видит вторая девушка и делает снимок на телефон.
На следующей день, девушка подходит к тренеру и начинает его шантажировать фотографией,
чтобы он ее тоже трахнул и лишил девственности.


Описание ENG:
Girl seduces his coach volleyball, after volleyball, they have sex, this picture see the other girl and takes the picture on the telephone.
On the next day, the girl goes to the coach and starts to blackmail photo to he, too fucked and deprived of virginity.


Информационные ссылки: AniDB - MAL - World Art - ХентайМаг

Качество видео: DVD5
Формат видео: DVD Video
Видео кодек: MPEG2
Аудио кодек: AC3
Видео: 720х480, (16:9), 29,970 кадров/сек, ~ 6000 Кбит/сек, NTSC
Аудио: JAP, AC-3, 2 канала, 224 Кбит/сек, 48,0 КГц
Общее
Полное имя : J:\VIDEO_TS\VTS_01_1.VOB
Формат : MPEG-PS
Размер файла : 1024 Мбайт
Продолжительность : 2 м. 26 с.
Общий поток : 58,8 Мбит/сек

Видео
Идентификатор : 224 (0xE0)
Формат : MPEG Video
Версия формата : Version 2
Профиль формата : Main@Main
Параметр BVOP формата : Да
Параметр матрицы формата : По умолчанию
Параметр GOP формата : M=3, N=15
Продолжительность : 2 м. 26 с.
Битрейт : 57,4 Мбит/сек
Ширина : 720 пикселей
Высота : 480 пикселей
Соотношение сторон : 16:9
Частота кадров : 29,970 кадров/сек
Стандарт вещания : NTSC
Цветовое пространство : YUV
Субдискретизация насыщенности : 4:2:0
Битовая глубина : 8 бит
Метод сжатия : С потерями
Бит/(Пиксели*Кадры) : 5.538
Размер потока : 1000 Мбайт (98%)

Аудио
Идентификатор : 189 (0xBD)-128 (0x80)
Формат : AC-3
Формат/Информация : Audio Coding 3
Расширение режима : CM (complete main)
Параметр Endianness формата : Big
Режим смешивания : DVD-Video
Продолжительность : 2 м. 26 с.
Вид битрейта : Постоянный
Битрейт : 224 Кбит/сек
Каналы : 2 канала
Расположение каналов : Front: L R
Частота : 48,0 КГц
Битовая глубина : 16 бит
Метод сжатия : С потерями
Размер потока : 3,90 Мбайт (0%)

Меню


Трекер:  [ 06-Окт-2013 00:48 ]

  

Скачать .torrent

Размер .torrent файла 12 KB


Размер: 1.14 GB
Хэш (hash) релиза: e4717fa434dc58ea631b388bbe4805ad8f785cae

bot

Топик был перенесен в форум Хентай | С цензурой

Перенес LinGr

Хотите добавить комментарий к записи скачать торрент Joshikousei no Koshitsuki Извивающиеся школьницы

!Обратная связь