Скачать порно через торрент Riley Steele: Perfect Pet Riley Steele: Идеальная Кошечка UnionPeer.org бесплатно онлайн HD качество

Скачать новое порно 2015, 2014 новинки через торрент UnionPeer.org

Порно торрент бесплатно ЮнионПир.орг

Если у вас наблюдаются проблемы со скриншотами, переходом по ссылками, скачиванием торрентов - проблемы в блокировщике рекламы AdBlock. #хорошегоДня!


Статистика раздачи
Размер:  21.1 GB   |    Зарегистрирован:  4 года 1 месяц   |    .torrent скачан:  202 раза   |   
Раздают:  2  
   
Загрузка...
 
Автор Сообщение

LinGr

avatar LinGr


Riley Steele: Perfect Pet
Riley Steele: Идеальная Кошечка

Год производства: 2008 г.
Страна: США
Продолжительность: 2:04:40

Режиссер: Robby D
Студия: Digital Playground

В ролях:
Riley Steele, Shawna Lenee, Dakoda Brookes, Nika Noire, Britney Amber, Erik Everhard, James Deen, Danny Mountain, Jerry, Johnny Sins...

Описание:
Digital Playground''s acclaimed director Robby D. creates a world of sexual servitude, where beautiful girls adorned in leather collars crawl around wanting to please their masters.
Riley Steele: Perfect Pet features Digital Playground contract star Riley Steele in three erotic scenes of submissive fucking, including a hot B/G/G! Joining Riley on all fours are Shawna Lenee,
Britney Amber, Dakoda Brookes & Nika Noir, along with the hottest men in the industry. Riley Steele, Digital Playground''s beautiful, blonde surfer babe, is the perfect pet to take home and play with.


Доп. материалы и бонусы:
Interactive Menus
Chapter Selection
Behind the Scenes
Slide Show
Trailers

Тип HD видео: 1080i
Качество видео: Blu-Ray
Видео: MPEG-4 AVC Video / 18000 kbps / 1080i / 29,970 fps / 16:9 / High Profile 4.1
Аудио: English / AC3 / 5.1 / 48 kHz / 448 kbps / DN -4dB

Семпл - 30 сек (55 МБ) ЯндексДиск

C:\RILEY_STEELE_PERFECT_PET_BD\BDMV\STREAM\00002.m2ts

General #0
ID : 0 (0x0)
Complete name : C:\RILEY_STEELE_PERFECT_PET_BD\BDMV\STREAM\00002.m2ts
Format : BDAV
Format/Info : Blu-ray Video
File size : 16.8 GiB
Duration : 2h 4mn
Overall bit rate mode : Variable
Overall bit rate : 19.3 Mbps
Maximum Overall bit rate : 48.0 Mbps

Video #4113
ID : 4113 (0x1011)
Menu ID : 1 (0x1)
Format : AVC
Format/Info : Advanced Video Codec
Format profile : High@L4.1
Format settings, CABAC : Yes
Format settings, ReFrames : 4 frames
Format settings, GOP : M=3, N=24
Codec ID : 27
Duration : 2h 4mn
Bit rate mode : Variable
Bit rate : 18.1 Mbps
Maximum bit rate : 30.0 Mbps
Width : 1 920 pixels
Height : 1 080 pixels
Display aspect ratio : 16:9
Frame rate : 29.970 fps
Standard : NTSC
Color space : YUV
Chroma subsampling : 4:2:0
Bit depth : 8 bits
Scan type : MBAFF
Bits/(Pixel*Frame) : 0.292
Stream size : 15.8 GiB (94%)
Color primaries : BT.709
Transfer characteristics : BT.709
Matrix coefficients : BT.709

Audio #4352
ID : 4352 (0x1100)
Menu ID : 1 (0x1)
Format : AC-3
Format/Info : Audio Coding 3
Mode extension : CM (complete main)
Format settings, Endianness : Big
Codec ID : 129
Duration : 2h 4mn
Bit rate mode : Constant
Bit rate : 448 Kbps
Channel count : 6 channels
Channel positions : Front: L C R, Side: L R, LFE
Sampling rate : 48.0 KHz
Bit depth : 16 bits
Compression mode : Lossy
Stream size : 400 MiB (2%)
DISC INFO:

Disc Title: RILEY_STEELE_PERFECT_PET_BD
Disc Size: 22 657 598 570 bytes
Protection: AACS
BD-Java: No
BDInfo: 0.5.8

PLAYLIST REPORT:

Name: 00002.MPLS
Length: 2:04:40.873 (h:m:s.ms)
Size: 18 085 699 584 bytes
Total Bitrate: 19,34 Mbps

VIDEO:

Codec Bitrate Description
----- ------- -----------
MPEG-4 AVC Video 18000 kbps 1080i / 29,970 fps / 16:9 / High Profile 4.1

AUDIO:

Codec Language Bitrate Description
----- -------- ------- -----------
Dolby Digital Audio English 448 kbps 5.1 / 48 kHz / 448 kbps / DN -4dB

QUICK SUMMARY:

Disc Title: RILEY_STEELE_PERFECT_PET_BD
Disc Size: 22 657 598 570 bytes
Protection: AACS
BD-Java: No
Playlist: 00002.MPLS
Size: 18 085 699 584 bytes
Length: 2:04:40.873
Total Bitrate: 19,34 Mbps
Video: MPEG-4 AVC Video / 18000 kbps / 1080i / 29,970 fps / 16:9 / High Profile 4.1
Audio: English / Dolby Digital Audio / 5.1 / 48 kHz / 448 kbps / DN -4dB


Трекер:  [ 03-Окт-2013 20:18 ]

  

Скачать .torrent

Размер .torrent файла 55 KB


Размер: 21.1 GB
Хэш (hash) релиза: 95fb67af408805a1cdf039fdc72c61b673f76f23

Торренты, похожие на Riley Steele: Perfect Pet Riley Steele: Идеальная Кошечка скачать торрент

Форум Название Автор Размер S L Добавлен
Гонзо-фильмы ·· Riley Steele: Perfect Pet / Райли Стил: Идеальная кошечка (Robby D., Digital Playground) [2008 г., Gonzo, Straight, 720p, BDRip] LinGr 46958091654.37 GB 0 0 1381169242

21:07

7-Окт-13

bot

Топик был перенесен в форум Гонзо-фильмы

Перенес LinGr

Хотите добавить комментарий к записи скачать торрент Riley Steele: Perfect Pet Riley Steele: Идеальная Кошечка

!Обратная связь