Скачать порно через торрент Jacks My First Porn Моё первое порно от Джека UnionPeer.org бесплатно онлайн HD качество

Скачать новое порно 2015, 2014 новинки через торрент UnionPeer.org

Порно торрент бесплатно ЮнионПир.орг

Если у вас наблюдаются проблемы со скриншотами, переходом по ссылками, скачиванием торрентов - проблемы в блокировщике рекламы AdBlock. #хорошегоДня!


Статистика раздачи
Размер:  20.72 GB   |    Зарегистрирован:  4 года   |    .torrent скачан:  109 раз   |   
Раздают:  1  
   
Загрузка...
 
Автор Сообщение

LinGr

avatar LinGr


Jack's My First Porn
Моё первое порно от Джека

Год производства: 2005 г.
Страна: США
Продолжительность: 2:06:48

Режиссер: Robby D
Студия: Digital Playground

В ролях: Terri Summers, Lanny Barby, Teagan Presley, Austin Kincaid, Lena Bacci, Tommy Gunn, Chris Charming, Joe Monti, Marco Banderas, Scott Nails...

Описание: My First Porn is a comical sex-spectacle of Jack directing his first porn movie...

Доп. материалы и бонусы:
Interactive Menus
Chapter Selection
Photo Gallery
Trailers

Тип HD видео: 1080i
Качество видео: Blu-Ray
Видео: MPEG-4 AVC Video / 18999 kbps / 1080i / 29,970 fps / 16:9 / High Profile 4.1
Аудио: English / AC3 / 5.1 / 48 kHz / 448 kbps / DN -4dB

Семпл - 30 сек (65 МБ) ЯндексДиск
C:\JACKS_MY_FIRST_PORN_01_BD\BDMV\STREAM\00002.m2ts

General #0
ID : 0 (0x0)
Complete name : C:\JACKS_MY_FIRST_PORN_01_BD\BDMV\STREAM\00002.m2ts
Format : BDAV
Format/Info : Blu-ray Video
File size : 18.1 GiB
Duration : 2h 6mn
Overall bit rate mode : Variable
Overall bit rate : 20.4 Mbps
Maximum Overall bit rate : 48.0 Mbps

Video #4113
ID : 4113 (0x1011)
Menu ID : 1 (0x1)
Format : AVC
Format/Info : Advanced Video Codec
Format profile : High@L4.1
Format settings, CABAC : Yes
Format settings, ReFrames : 4 frames
Format settings, GOP : M=3, N=18
Codec ID : 27
Duration : 2h 6mn
Bit rate mode : Variable
Bit rate : 19.1 Mbps
Maximum bit rate : 28.0 Mbps
Width : 1 440 pixels
Height : 1 080 pixels
Display aspect ratio : 16:9
Frame rate : 29.970 fps
Standard : NTSC
Color space : YUV
Chroma subsampling : 4:2:0
Bit depth : 8 bits
Scan type : MBAFF
Bits/(Pixel*Frame) : 0.410
Stream size : 16.9 GiB (94%)
Color primaries : BT.709
Transfer characteristics : BT.709
Matrix coefficients : BT.709

Audio #4352
ID : 4352 (0x1100)
Menu ID : 1 (0x1)
Format : AC-3
Format/Info : Audio Coding 3
Mode extension : CM (complete main)
Format settings, Endianness : Big
Codec ID : 129
Duration : 2h 6mn
Bit rate mode : Constant
Bit rate : 448 Kbps
Channel count : 6 channels
Channel positions : Front: L C R, Side: L R, LFE
Sampling rate : 48.0 KHz
Bit depth : 16 bits
Compression mode : Lossy
Stream size : 406 MiB (2%)
DISC INFO:

Disc Title: JACKS_MY_FIRST_PORN_01_BD
Disc Size: 22 248 447 063 bytes
Protection: AACS
BD-Java: No
BDInfo: 0.5.8

PLAYLIST REPORT:

Name: 00002.MPLS
Length: 2:06:48.968 (h:m:s.ms)
Size: 19 387 250 688 bytes
Total Bitrate: 20,38 Mbps

VIDEO:

Codec Bitrate Description
----- ------- -----------
MPEG-4 AVC Video 18999 kbps 1080i / 29,970 fps / 16:9 / High Profile 4.1

AUDIO:

Codec Language Bitrate Description
----- -------- ------- -----------
Dolby Digital Audio English 448 kbps 5.1 / 48 kHz / 448 kbps / DN -4dB

QUICK SUMMARY:

Disc Title: JACKS_MY_FIRST_PORN_01_BD
Disc Size: 22 248 447 063 bytes
Protection: AACS
BD-Java: No
Playlist: 00002.MPLS
Size: 19 387 250 688 bytes
Length: 2:06:48.968
Total Bitrate: 20,38 Mbps
Video: MPEG-4 AVC Video / 18999 kbps / 1080i / 29,970 fps / 16:9 / High Profile 4.1
Audio: English / Dolby Digital Audio / 5.1 / 48 kHz / 448 kbps / DN -4dB


Трекер:  [ 03-Окт-2013 20:18 ]

  

Скачать .torrent

Размер .torrent файла 56 KB


Размер: 20.72 GB
Хэш (hash) релиза: 91bcb262c7ef3a33e1fac3bb7f94b40936a535da

bot

Топик был перенесен в форум Гонзо-фильмы

Перенес LinGr

Хотите добавить комментарий к записи скачать торрент Jacks My First Porn Моё первое порно от Джека

!Обратная связь