Скачать порно через торрент Furyou ni Hamerarete Jusei Suru Kyonyuu Okaa-san The Animation Неудавшееся оплодотворение грудастой мамаши UnionPeer.org бесплатно онлайн HD качество

Скачать новое порно 2015, 2014 новинки через торрент UnionPeer.org

Порно торрент бесплатно ЮнионПир.орг

Если у вас наблюдаются проблемы со скриншотами, переходом по ссылками, скачиванием торрентов - проблемы в блокировщике рекламы AdBlock. #хорошегоДня!


Статистика раздачи
Размер:  5.56 GB   |    Зарегистрирован:  3 года 10 месяцев   |    .torrent скачан:  146 раз   |   
Раздают:  1  
   
Загрузка...
 
Автор Сообщение

LinGr

avatar LinGr


Furyou ni Hamerarete Jusei Suru Kyonyuu Okaa-san The Animation
不良にハメられて受精する巨乳お母さん THE ANIMATION
Неудавшееся оплодотворение грудастой мамаши

Год производства: 2013 г.
Жанр: Big tits, Oral sex, Titsjob, X-Ray, Incest, Rape, Group sex
Серии: ep. 1-2 of 2
Продолжительность: 2x ~ 25 min + 25 min трейлеры
Цензура: Есть

Озвучка: Японская (Оригинальная)

Режиссер: Araki Hideki
Автор оригинала: Erectlip
Студия: Pink Pineapple

Описание RUS: Kyoko мать одиночка, живущая в не богатом районе и растит сына. Пытаясь дать ему всё чего он лишился после ухода отца. Но как и всем Kyoko хочется расслабиться от мирской суеты и не много раскрепоститься, порой даже заглядываясь на своего сына. По скольку он не глупый и всё прекрасно понимает то просто пытается не подавать виду, хотя порой у него в голове проскакивают похотливые мысли. Ведь Kyoko очень сексуальна выглядит а её огромная грудь не может оставить равнодушным не одного мужчину. Чуть позже у неё появляется молодой ухажер, который даст ей то чего ей так не доставало. Гулянки и пьянки, в итоге она даже забудет про своего сына. А он тем временем будет наблюдать на это всё со стороны, от части с завистью ведь сам он упустил такую редкую возможность. Но с другой стороны ему грустно что он не смог ей дать того что она так стремилась получить. Но всё же нам обещают не большую сценку с инцестом в ванной, по этому не всё потерянно. © Ксения Нефёдова

Описание ENG: Kyoko single mother, who lives in an affluent area and not a son. Trying to give him everything that he had lost after the departure of his father. But like all Kyoko want to relax from the madding crowd and not a lot to be liberated, sometimes peering at his son. According since he is not stupid, and all is well aware that simply tries not to let on, though at times his mind skips lustful thoughts. After all, Kyoko is very sexy looks and her huge breasts can not be indifferent to one man. A little later, she has a young fellow who will give her something that she so lacked. Partying and drinking, in the end, she even forgets about his son. And in the meantime he will be watching for it all on the side of the part with envy because he has missed a rare opportunity. But on the other hand he is sad that he could not give her the fact that she was so eager to get. But yet, we promise not big scene with incest in the bathroom, this is not lost.

Информационные ссылки: AniDB - MAL - World Art - ХентайМаг

Качество видео: 2x DVD5
Формат видео: DVD Video
Видео кодек: MPEG2
Аудио кодек: AC3
Видео: 720х480, (16:9), 29,970 кадров/сек, ~ 8600 Кбит/сек, NTSC
Аудио: JAP, AC-3, 2 канала, 192 Кбит/сек, 48,0 КГц
Общее
Полное имя : J:\VIDEO_TS\VTS_01_1.VOB
Формат : MPEG-PS
Размер файла : 1024 Мбайт
Продолжительность : 15 м.
Режим общего битрейта : Переменный
Общий поток : 9061 Кбит/сек

Видео
Идентификатор : 224 (0xE0)
Формат : MPEG Video
Версия формата : Version 2
Профиль формата : Main@Main
Параметр BVOP формата : Да
Параметр матрицы формата : Выборочная
Параметр GOP формата : Variable
Продолжительность : 15 м.
Вид битрейта : Переменный
Битрейт : 8689 Кбит/сек
Максимальный битрейт : 9800 Кбит/сек
Ширина : 720 пикселей
Высота : 480 пикселей
Соотношение сторон : 16:9
Частота кадров : 29,970 кадров/сек
Стандарт вещания : NTSC
Цветовое пространство : YUV
Субдискретизация насыщенности : 4:2:0
Битовая глубина : 8 бит
Тип развёртки : Чересстрочная
Порядок развёртки : Верхнее поле первое
Метод сжатия : С потерями
Бит/(Пиксели*Кадры) : 0.839
Временной код первого кадра : 01:00:10:00
Оригинал временного кода : Group of pictures header
Размер потока : 982 Мбайт (96%)

Аудио
Идентификатор : 189 (0xBD)-128 (0x80)
Формат : AC-3
Формат/Информация : Audio Coding 3
Расширение режима : CM (complete main)
Параметр Endianness формата : Big
Режим смешивания : DVD-Video
Продолжительность : 15 м.
Вид битрейта : Постоянный
Битрейт : 192 Кбит/сек
Каналы : 2 канала
Расположение каналов : Front: L R
Частота : 48,0 КГц
Битовая глубина : 16 бит
Метод сжатия : С потерями
Размер потока : 21,7 Мбайт (2%)

Меню
Внимание! Раздача ведётся путём добавления новых серий. При каждом добавлении создётся новый торрент. Чтобы начать докачку новой серии, пользователям необходимо сделать следующее:
(1) остановить скачивание,
(2) удалить старый торрент у себя из клиента (старые серии удалять не надо),
(3) скачать новый торрент и запустить его у себя в клиенте вместо старого, при этом указать клиенту путь в старую папку куда и должно происходить скачивание новых серий.
Ваш клиент при этом должен произвести хеширование (проверку) старой папки (если не производит сам - помогите ему сделать это), и будет докачивать только те серии которых у вас ещё нет. Старые серии при этом не удаляются, а продолжают раздаваться!
Eсли вы уже удалили старые серии, то предотвратить повторную закачку старых серий можно, отжав галочку в соответсвующих местах при запуске нового торрента.
Торрент-файл обновлен! Добавлен 2 эпизод.

Трекер:  [ 02-Окт-2013 18:15 ]

  

Скачать .torrent

Размер .torrent файла 14 KB


Размер: 5.56 GB
Хэш (hash) релиза: 897a0ea645e893b52605d34f45115731400f6cdd

Торренты, похожие на Furyou ni Hamerarete Jusei Suru Kyonyuu Okaa-san The Animation Неудавшееся оплодотворение грудастой мамаши скачать торрент

Форум Название Автор Размер S L Добавлен
Хентайные и эротические игры ·· Furyou ni Hamerarete Jusei Suru Kyonyuu Okaa-san The Animation / Неудавшееся оплодотворение грудастой мамаши (Araki Hideki, PinkPineapple)(ep. 1-2 of 2)[cen][2013 г. Housewives, Big tits, Anal, Group, Titsjob, Incest, Femdom, DVDRip][jap / eng / rus] Galfimbul 520408110496 MB 0 0 1395904839

10:20

27-Мар-14

Хентай | С цензурой ·· Furyou ni Hamerarete Jusei Suru Kyonyuu Okaa-san The Animation / Неудавшееся оплодотворение грудастой мамаши (Araki Hideki, PinkPineapple)(ep. 1-2 of 2)[cen][2013 г. Housewives, Big tits, Anal, Group, Titsjob, Incest, Femdom, DVDRip][jap / eng / rus] Galfimbul 520985642497 MB 0 0 1395814988

09:23

26-Мар-14

Хентай | С цензурой ·· Furyou ni Hamerarete Jusei Suru Kyonyuu Okaa-san The Animation / Неудавшееся оплодотворение грудастой мамаши (Araki Hideki, PinkPineapple)(ep. 1-2 of 2)[cen][2013 г. Housewives, Big tits, Anal, Group, Titsjob, Incest, Femdom, DVDRip][jap / eng / rus] LinGr 423950975404 MB 0 0 1382884532

17:35

27-Окт-13

Хентай | С цензурой ·· Furyou ni Hamerarete Jusei Suru Kyonyuu Okaa-san The Animation / Неудавшееся оплодотворение грудастой мамаши (Araki Hideki, PinkPineapple)(ep. 1-2 of 2)[cen][2013 г. Drama, Housewives, Big tits, Anal, Group, Titsjob, Incest, Femdom, DVDRip][jap/eng] LinGr 741318749707 MB 0 0 1381009161

00:39

6-Окт-13

Хентай | С цензурой ·· Furyou ni Hamerarete Jusei Suru Kyonyuu Okaa-san The Animation / Неудавшееся оплодотворение грудастой мамаши (Araki Hideki, Pink Pineapple) (ep. 1) [cen] [2013 г., Big tits, Blowjob, Titsjob, Incest, Straight, Housewives, DVDRip] [jap] LinGr 393208797375 MB 0 0 1370809914

23:31

9-Июн-13

bot

Топик был перенесен в форум Хентай | С цензурой

Перенес LinGr

Хотите добавить комментарий к записи скачать торрент Furyou ni Hamerarete Jusei Suru Kyonyuu Okaa-san The Animation Неудавшееся оплодотворение грудастой мамаши

!Обратная связь