Скачать через торрент Голубые цветы Aoi Hana бесплатно Аниме Все серии на русском torrent

Если у вас наблюдаются проблемы со скриншотами, переходом по ссылками, скачиванием торрентов - проблемы в блокировщике рекламы AdBlock. #хорошегоДня!


Статистика раздачи
Размер:  6.31 GB   |    Зарегистрирован:  3 года 11 месяцев   |    .torrent скачан:  12 раз   |   
Раздают:  1  
   
Загрузка...
 
Автор Сообщение

Polarnik

avatar Polarnik



Год выпуска: 2009
Страна: Япония
Жанр: сёдзё-ай, школа
Продолжительность: 11 эп. по 24 мин.
Перевод:

русские субтитры от Hollow (полные/вспомогательные)
Режиссер: Касай Кэнъити
Студия: J.C. Staff
Описание:
Фуми Мандзёмэ и Акира Окудайра были неразлучны в детском саду, но семья Фуми переехала, и лучшие подруги расстались. Через 10 лет Мандзёмэ возвращается в город детства, Камакуру, поступает в женскую школу Мацуока – и в первый же день учебы сталкивается на станции с Акирой, которая пошла в престижную девичью академию Фудзигая. За прошедшие годы подруги изменились внешне, но характеры остались прежними. Плакса и коротышка Фуми выросла высокой и элегантной, но внутри все такая же застенчивая, нерешительная, предпочитающая книги и фантазии реальному миру. Веселая и беззаботная Акира так и осталась невысокой крепышкой, всюду рассеивающей положительную энергию.

И пускай старые знакомые не узнали друг друга с первого раза, случай свел их вновь, и вскоре десяти лет как будто не бывало. Теперь Фуми и Акира будут вместе и, как в старые времена, смогут утешать и поддерживать друг друга в горе и радости, проблемах школьных, сердечных и всех остальных, которые преподносит жизнь.
© Hollow, World Art
Информационные ссылки: AniDB || World Art || MAL
Качество: BDRip
Энкод: Winter - RG Pantheon
Тип видео: без хардсаба
Формат: mkv
Видео: x264 (Hi10p), 1280x720, ~2400 Kbps, 23.976 fps
Аудио JAP: Vorbis, 48000Hz, ~256 Kbps, 2ch
Аудио RUS 1: AC3, 48000Hz, ~192 Kbps, 2ch (внешними файлами)
Аудио RUS 2: AC3, 48000Hz, ~192 Kbps, 2ch (внешними файлами)
Аудио RUS 3: AC3, 48000Hz, ~192 Kbps, 2ch (внешними файлами)
одноголосая (муж.) от OSLIKt (AniDub)
одноголосая (муж.) от Vulpes Vulpes

двухголосая (жен./муж.) от Persona99 & MaxDamage (GetSmart)
01. Flower`s Tale
02. Springtime`s Storm
03. When I Wake Up in the Morning
04. Youth Is Beautiful
05. Wuthering Heights (Part One)
06. Wuthering Heights (Part Two)
07. When the New Leaves Grow
08. Love Is Blind
09. A Midsummer Night`s Dream
10. The Prince of Happiness
11. Winter`s Fireworks
Общее
Уникальный идентификатор : 176900508033711304596183202751655460572 (0x8515CC6E6CAB1C36A237C9FBB81C3EDC)
Полное имя : Z:\Anime\720p\Aoi Hana [BD] [720p]\[Winter] Aoi Hana 01 [BDrip 1280x720 x264 Vorbis].mkv
Формат : Matroska
Версия формата : Version 2
Размер файла : 434 Мбайт
Продолжительность : 22 м.
Режим общего битрейта : Переменный
Общий поток : 2691 Кбит/сек
Дата кодирования : UTC 2013-09-28 10:59:45
Программа кодирования : mkvmerge v2.9.8 (''C''est le bon'') built on Aug 13 2009 12:49:06
Библиотека кодирования : libebml v0.7.7 + libmatroska v0.8.1

Видео
Идентификатор : 1
Формат : AVC
Формат/Информация : Advanced Video Codec
Профиль формата : High 10@L4.1
Параметр CABAC формата : Да
Параметр ReFrames формата : 9 кадров
Идентификатор кодека : V_MPEG4/ISO/AVC
Продолжительность : 22 м.
Битрейт : 2381 Кбит/сек
Ширина : 1280 пикселей
Высота : 720 пикселей
Соотношение сторон : 16:9
Режим частоты кадров : Постоянный
Частота кадров : 23,976 кадра/сек
Цветовое пространство : YUV
Субдискретизация насыщенности : 4:2:0
Битовая глубина : 10 бит
Тип развёртки : Прогрессивная
Бит/(Пиксели*Кадры) : 0.108
Размер потока : 384 Мбайт (88%)
Библиотека кодирования : x264 core 132 r2309 3b1f1f7
Настройки программы : cabac=1 / ref=9 / deblock=1:-2:-2 / analyse=0x3:0x133 / me=hex / subme=9 / psy=1 / psy_rd=0.90:0.00 / mixed_ref=1 / me_range=16 / chroma_me=1 / trellis=2 / 8x8dct=1 / cqm=0 / deadzone=21,11 / fast_pskip=1 / chroma_qp_offset=-2 / threads=6 / lookahead_threads=1 / sliced_threads=0 / nr=0 / decimate=0 / interlaced=0 / bluray_compat=0 / constrained_intra=0 / bframes=8 / b_pyramid=2 / b_adapt=2 / b_bias=0 / direct=1 / weightb=1 / open_gop=0 / weightp=2 / keyint=250 / keyint_min=23 / scenecut=40 / intra_refresh=0 / rc=crf / mbtree=0 / crf=15.2 / qcomp=0.70 / qpmin=9 / qpmax=40 / qpstep=4 / ip_ratio=1.40 / pb_ratio=1.30 / aq=1:0.90
Default : Нет
Forced : Нет

Аудио
Идентификатор : 2
Формат : Vorbis
Параметр Floor формата : 1
Идентификатор кодека : A_VORBIS
Продолжительность : 22 м.
Вид битрейта : Переменный
Битрейт : 256 Кбит/сек
Каналы : 2 канала
Частота : 48,0 КГц
Метод сжатия : С потерями
Размер потока : 41,3 Мбайт (10%)
Библиотека кодирования : libVorbis (Omnipresent) (20120203 (Omnipresent))
Язык : Japanese
Default : Да
Forced : Нет


Данный релиз предназначен для просмотра на ПК. Воспроизведение на иных проигрывателях не гарантируется. Для просмотра рекомендуется Media Player Classic с установленным пакетом кодеков K-Lite.

Данный релиз содержит 10-битное видео (Hi10p). Для корректного воспроизведения обязательно используйте кодеки, поддерживающие 10-битное видео.

Данный релиз предназначен для просмотра с внешними субтитрами и внешними звуковыми дорожками.

Для просмотра с внешней звуковой дорожкой нужно:
перекинуть файлы .mka из папки "RUS Sound [<автор(ы) озвучки>]" в одну папку с видео и переключить звуковую дорожку в плеере при просмотре.
Для просмотра с субтитрами нужно:
перекинуть файлы .ass из папки "RUS Subtitles [<автор(ы) перевода>]" в одну папку с видео - плеер подгрузит их автоматически при открытии видео.


Трекер:  [ 30-Сен-2013 14:59 ]

  

Скачать .torrent

Размер .torrent файла 39 KB


Размер: 6.31 GB
Хэш (hash) релиза: eb9a5ef8a50ebce4f19095480b8e4aec91b0aa58
Подписка на обновления:

Торренты, похожие на Голубые цветы Aoi Hana скачать торрент

Форум Название Автор Размер S L Добавлен
Аниме | HD Rips ·· Голубые цветы / Aoi Hana / Sweet Blue Flower [TV] [11 из 11] [Без хардсаба] [JAP, SUB] [2009 г., сёдзё-ай, школа, повседневность, сейнен, BDRemux] [1080p] Galfimbul 7904786622073.62 GB 0 0 1463693398

00:29

20-Май-16

Аниме | HD Rips ·· Голубые цветы / Aoi Hana / Sweet Blue Flower (Касай Кэнъити) [TV] (11 из 11) [RUS(ext), JAP+SUB] [2009 г., сёдзё-ай, школа, BDRip] [1080p] Polarnik 1304940131112.15 GB 0 0 1380055128

23:38

24-Сен-13

Еще никто не оставлял запись к записи скачать торрент Голубые цветы Aoi Hana . Будь первым!

!Обратная связь