Скачать порно через торрент Оральная стимуляция, т.е. девочки сосут член UnionPeer.org бесплатно онлайн HD качество

Скачать новое порно 2015, 2014 новинки через торрент UnionPeer.org

Порно торрент бесплатно ЮнионПир.орг

Если у вас наблюдаются проблемы со скриншотами, переходом по ссылками, скачиванием торрентов - проблемы в блокировщике рекламы AdBlock. #хорошегоДня!


Статистика раздачи
Размер:  131 MB   |    Зарегистрирован:  4 года   |    .torrent скачан:  506 раз   |   
Раздают:  1  
   
Загрузка...
 
Автор Сообщение

LinGr

avatar LinGr


Оральная стимуляция, т.е. девочки сосут член

Год производства: 2007 г.
Жанр: Oral, teen
Продолжительность: 12.09
Перевод: не требуется
Русские субтитры: нет
В ролях: нет информации

Описание: Девочки отсасывают на 5+. Оригинальное видео в отличном исполнении.

Качество видео: CamRip
Формат видео: WMV
Видео кодек: Windows Media
Аудио кодек: WMA
Видео: Windows Media Video 9 640x480 30.00fps 1372kbps
Аудио: Windows Media Audio 44100Hz stereo 128kbps

General
Complete name : D:\Roliki\oralnaya_stimulyaciya.wmv
Format : Windows Media
File size : 131 MiB
Duration : 12mn 9s
Overall bit rate mode : Constant
Overall bit rate : 1 509 Kbps
Maximum Overall bit rate : 1 516 Kbps
Encoded date : UTC 2007-11-21 03:23:15.859
Application : Windows Movie Maker 2.1.4026.0

Video
ID : 2
Format : VC-1
Format profile : MP@ML
Codec ID : WMV3
Codec ID/Info : Windows Media Video 9
Codec ID/Hint : WMV3
Description of the codec : Windows Media Video 9 - Professional
Duration : 12mn 9s
Bit rate mode : Constant
Bit rate : 1 372 Kbps
Width : 640 pixels
Height : 480 pixels
Display aspect ratio : 4:3
Frame rate : 30.000 fps
Bit depth : 8 bits
Scan type : Progressive
Bits/(Pixel*Frame) : 0.149
Stream size : 119 MiB (91%)
Language : English (US)

Audio
ID : 1
Format : WMA
Format version : Version 2
Codec ID : 161
Codec ID/Info : Windows Media Audio
Description of the codec : Windows Media Audio 9.1 - 128 kbps, 44 kHz, stereo (A/V) 1-pass CBR
Duration : 12mn 9s
Bit rate mode : Constant
Bit rate : 128 Kbps
Channel(s) : 2 channels
Sampling rate : 44.1 KHz
Bit depth : 16 bits
Stream size : 11.1 MiB (8%)
Language : English (US)


Трекер:  [ 29-Сен-2013 14:57 ]

  

Скачать .torrent

Размер .torrent файла 10 KB


Размер: 131 MB
Хэш (hash) релиза: ca268fbc4d8cdde5047900184f2a69a65c9e0584

Еще никто не оставлял запись к записи скачать торрент Оральная стимуляция, т.е. девочки сосут член . Будь первым!

!Обратная связь