Скачать порно через торрент Underground Idol X Raised In R*peture -Dear Fans, I Am Sorry UnionPeer.org бесплатно онлайн HD качество

Скачать новое порно 2015, 2014 новинки через торрент UnionPeer.org

Порно торрент бесплатно ЮнионПир.орг

Если у вас наблюдаются проблемы со скриншотами, переходом по ссылками, скачиванием торрентов - проблемы в блокировщике рекламы AdBlock. #хорошегоДня!


Статистика раздачи
Размер:  546 MB   |    Зарегистрирован:  3 года 10 месяцев   |    .torrent скачан:  552 раза   |   
Раздают:  1  
   
Загрузка...
 
Автор Сообщение

LinGr

avatar LinGr



Underground Idol X Raised In R*peture -Dear Fans, I Am Sorry
地下アイドル☓教辱育録~ファンの皆さん、ごめんなさい~

Год производства: 2013 г.
07/09/2013
Жанр: Clothed Collar/Chain/Hamper, Leotard, Idol
Продолжительность: 23:18
Цензура: Есть во всех файлах

Язык: Японский
Озвучка: Оригинальная
Студия: Nylon Heart


Описание:
As an amateur idol, little Hochika was a hot seller.
Her carefree smile and indefatigable cheer were like dual rockets launching her fame.
Now her manager has discovered a secret that could ruin it all.
He maintains her public innocent persona, while grooming her to be an underground sex slave...

* Missionary, doggy style, squirting orgasms, bondage buzzer & blindfolded ballgag, on stage with a remote control vibrator,
and more precocious underground idol humiliation training!

* Illustration-like 3D slick smooth animation!
Quality sound effects and the latest in fluid tech meet a young girl resulting in sloppy wetness!

* Cross section diagram display ON/OFF selection in the option menu. You'll feel like you're going deep inside the flesh yourself!

* Enhanced erotica from fabric fit to frills thanks to the cutting edge clothes texture simulation!

* Heaps of climactic stories, skits and situations! On-camera sex & dirty talking demands!

* Extra love was put into the motion of Hochika's bouncing butt and thighs.
Become her manager, see all sides of her double life training!

Качество видео: GameRip
Формат видео: WMV
Видео кодек: Windows Media
Аудио кодек: WMA
Видео: Windows Media Video 9 1016x764 30fps 2124kbps
Аудио 1: WMA Pro 44100Hz stereo 440kbps

Video
ID : 1
Format : VC-1
Format profile : MP@HL
Codec ID : WMV3
Codec ID/Info : Windows Media Video 9
Codec ID/Hint : WMV3
Description of the codec : Windows Media Video 9
Duration : 29mn 24s
Bit rate mode : Variable
Bit rate : 2 125 Kbps
Width : 1 016 pixels
Height : 764 pixels
Display aspect ratio : 4:3
Frame rate : 30.000 fps
Bit depth : 8 bits
Scan type : Progressive
Compression mode : Lossy
Bits/(Pixel*Frame) : 0.091
Stream size : 447 MiB (82%)
Language : Latvian

Audio
ID : 2
Format : WMA
Format profile : Pro
Codec ID : 162
Codec ID/Info : Windows Media Audio
Description of the codec : Windows Media Audio 10 Professional - 440 kbps, 44 kHz, 2 channel 24 bit (A/V) 1-pass CBR
Duration : 29mn 24s
Bit rate mode : Constant
Bit rate : 440 Kbps
Channel(s) : 2 channels
Sampling rate : 44.1 KHz
Bit depth : 24 bits
Stream size : 92.6 MiB (17%)


Трекер:  [ 28-Сен-2013 23:55 ]

  

Скачать .torrent

Размер .torrent файла 11 KB


Размер: 546 MB
Хэш (hash) релиза: cc80a1f08acf9f7c0b6f9978bcdc35c7a4796d1a

Торренты, похожие на Underground Idol X Raised In R*peture -Dear Fans, I Am Sorry скачать торрент

Форум Название Автор Размер S L Добавлен
Хентайные и эротические игры ·· Underground Idol X Raised In R*peture -Dear Fans, I Am Sorry- (Nylon heart) [cen] [2013, 3DCG, Animation, Flash, DFC, Bondage, X-Ray, Oral, Creampie, Anal, Rape, Ahegao, Paizuri] [jap+rus] Galfimbul 24256166022.26 GB 0 0 1450670449

07:00

21-Дек-15

Еще никто не оставлял запись к записи скачать торрент Underground Idol X Raised In R*peture -Dear Fans, I Am Sorry . Будь первым!

!Обратная связь