Скачать порно через торрент 5 Клипов С Рэйной Джаггс - Кучерявая Шлюха С Огромными Дойками 10-ого Размера 5 Clips With Reina Juggs - Curly Giant Titted Slut UnionPeer.org бесплатно онлайн HD качество

Скачать новое порно 2015, 2014 новинки через торрент UnionPeer.org

Порно торрент бесплатно ЮнионПир.орг

Если у вас наблюдаются проблемы со скриншотами, переходом по ссылками, скачиванием торрентов - проблемы в блокировщике рекламы AdBlock. #хорошегоДня!


Статистика раздачи
Размер:  1.44 GB   |    Зарегистрирован:  3 года 10 месяцев   |    .torrent скачан:  568 раз   |   
Раздают:  2  
   
Загрузка...
 
Автор Сообщение

LinGr

avatar LinGr



Рэйна Джаггс - Кучерявая Шлюха С Огромными Дойками 10-ого Размера
Reina Juggs - Curly Giant Titted Slut




Reina Juggs aka Reina Curly

Год производства: 2011-2012 г.
Жанр: Amateur, Curly, Curvy, Big Tits, Giant Tits, Natural, Large Areolas, Solo, Webcam, Teasing, Toys
Источники видео : SiteRip, Файлообменники

Описание:
5 возбуждающих видео с роскошной, сисястой, на 1001% натуральной, кучерявой эксгибиционисткой Рейной Джаггс.
Распутная шлюха позирует на камеру, виляет мясистой жопой,
мнёт дойки с большими сочными сосками и всячески дразнится - да так, что ваши члены будут пульсировать в экстазе от желания оттрахать эту бюстастую бестию.


Reina Juggs 1
Format : MPEG-4
Format profile : QuickTime
Codec ID : qt
File size : 237 MiB
Duration : 26mn 7s
Overall bit rate : 1 267 Kbps
Encoded date : UTC 2012-02-03 09:18:39
Tagged date : UTC 2012-02-03 09:18:39
Writing application : Lavf52.93.0

Video
ID : 1
Format : MPEG-4 Visual
Format profile : Simple@L3
Format settings, BVOP : No
Format settings, QPel : No
Format settings, GMC : No warppoints
Format settings, Matrix : Default (H.263)
Codec ID : 20
Duration : 26mn 6s
Bit rate mode : Variable
Bit rate : 1 200 Kbps
Width : 640 pixels
Height : 480 pixels
Display aspect ratio : 4:3
Frame rate mode : Constant
Frame rate : 20.000 fps
Resolution : 24 bits
Colorimetry : 4:2:0
Scan type : Progressive
Bits/(Pixel*Frame) : 0.195
Stream size : 224 MiB (95%)
Writing library : XviD 1.2.1 (UTC 2008-12-04)
Language : English
Encoded date : UTC 2012-02-03 09:18:39
Tagged date : UTC 2012-02-03 09:18:39

Audio
ID : 2
Format : MPEG Audio
Format version : Version 2.5
Format profile : Layer 3
Codec ID : .mp3
Duration : 26mn 7s
Bit rate mode : Constant
Bit rate : 64.0 Kbps
Channel(s) : 1 channel
Sampling rate : 11.025 KHz
Resolution : 16 bits
Stream size : 12.0 MiB (5%)
Writing library : LAME3.98.4ЄЄЄЄЄЄЄЄЄЄ
Language : English
Encoded date : UTC 2012-02-03 09:18:39
Tagged date : UTC 2012-02-03 09:18:39
Reina Juggs 2
Format : Windows Media
File size : 768 MiB
Duration : 1h 11mn
Overall bit rate : 1 499 Kbps
Maximum Overall bit rate : 992 Kbps
Encoded date : UTC 1970-01-01 00:00:00.000
WM/EncodingSettings : AVM.EXE

Video
ID : 1
Format : WMV2
Codec ID : WMV2
Codec ID/Info : Windows Media Video 8
Description of the codec : wmv2
Duration : 1h 11mn
Bit rate : 1 238 Kbps
Width : 640 pixels
Height : 480 pixels
Display aspect ratio : 4:3
Frame rate : 23.976 fps
Resolution : 24 bits
Bits/(Pixel*Frame) : 0.168
Stream size : 634 MiB (83%)

Audio
ID : 2
Format : WMA
Format version : Version 2
Codec ID : 161
Codec ID/Info : Windows Media Audio
Description of the codec : Windows Media Audio V8
Duration : 1h 11mn
Bit rate : 192 Kbps
Channel(s) : 1 channel
Sampling rate : 44.1 KHz
Resolution : 16 bits
Stream size : 98.3 MiB (13%)
Reina Juggs 3
Format : AVI
Format/Info : Audio Video Interleave
File size : 108 MiB
Duration : 31mn 38s
Overall bit rate : 477 Kbps
Writing application : Lavf52.39.1
Writing library : VirtualDub build 32839/release

Video
ID : 0
Format : MPEG-4 Visual
Format profile : AdvancedSimple@L5
Format settings, BVOP : Yes
Format settings, QPel : No
Format settings, GMC : No warppoints
Format settings, Matrix : Default (MPEG)
Muxing mode : Packed bitstream
Codec ID : XVID
Codec ID/Hint : XviD
Duration : 15mn 49s
Bit rate : 884 Kbps
Width : 640 pixels
Height : 480 pixels
Display aspect ratio : 4:3
Frame rate : 15.000 fps
Resolution : 24 bits
Colorimetry : 4:2:0
Scan type : Progressive
Bits/(Pixel*Frame) : 0.192
Stream size : 100 MiB (93%)
Writing library : XviD 64

Audio
ID : 1
Format : MPEG Audio
Format version : Version 2.5
Format profile : Layer 3
Codec ID : 55
Codec ID/Hint : MP3
Duration : 31mn 38s
Bit rate mode : Constant
Bit rate : 64.0 Kbps
Channel(s) : 1 channel
Sampling rate : 11.025 KHz
Resolution : 16 bits
Stream size : 7.24 MiB (7%)
Alignment : Aligned on interleaves
Interleave, duration : 52 ms (0.78 video frame)
Interleave, preload duration : 522 ms
Writing library : LAME3.96.1
Reina Juggs 4
Format : Windows Media
File size : 199 MiB
Duration : 14mn 21s
Overall bit rate mode : Constant
Overall bit rate : 1 937 Kbps
Maximum Overall bit rate : 1 938 Kbps
Encoded date : UTC 2011-12-19 20:08:01.277
AspectRatioX : 4
AspectRatioY : 3

Video
ID : 2
Format : VC-1
Format profile : MP@ML
Codec ID : WMV3
Codec ID/Info : Windows Media Video 9
Codec ID/Hint : WMV3
Description of the codec : Windows Media Video 9 - Professional
Duration : 14mn 21s
Bit rate mode : Constant
Bit rate : 1 600 Kbps
Width : 720 pixels
Height : 576 pixels
Display aspect ratio : 5:4
Frame rate : 25.000 fps
Standard : PAL
Resolution : 24 bits
Scan type : Progressive
Bits/(Pixel*Frame) : 0.154
Stream size : 164 MiB (83%)
Language : English (US)

Audio
ID : 1
Format : WMA
Format version : Version 2
Codec ID : 161
Codec ID/Info : Windows Media Audio
Description of the codec : Windows Media Audio 9.2 - 320 kbps, 44 kHz, stereo (A/V) 1-pass CBR
Duration : 14mn 21s
Bit rate mode : Constant
Bit rate : 320 Kbps
Channel(s) : 2 channels
Sampling rate : 44.1 KHz
Resolution : 16 bits
Stream size : 32.9 MiB (17%)
Language : English (US)
Riena Juggs 5
Format : Windows Media
File size : 160 MiB
Duration : 11mn 32s
Overall bit rate mode : Constant
Overall bit rate : 1 941 Kbps
Maximum Overall bit rate : 1 938 Kbps
Encoded date : UTC 2011-12-29 02:00:02.160
AspectRatioX : 4
AspectRatioY : 3

Video
ID : 2
Format : VC-1
Format profile : MP@ML
Codec ID : WMV3
Codec ID/Info : Windows Media Video 9
Codec ID/Hint : WMV3
Description of the codec : Windows Media Video 9 - Professional
Duration : 11mn 32s
Bit rate mode : Constant
Bit rate : 1 600 Kbps
Width : 720 pixels
Height : 576 pixels
Display aspect ratio : 5:4
Frame rate : 25.000 fps
Standard : PAL
Resolution : 24 bits
Scan type : Progressive
Bits/(Pixel*Frame) : 0.154
Stream size : 132 MiB (82%)
Language : English (US)

Audio
ID : 1
Format : WMA
Format version : Version 2
Codec ID : 161
Codec ID/Info : Windows Media Audio
Description of the codec : Windows Media Audio 9.2 - 320 kbps, 44 kHz, stereo (A/V) 1-pass CBR
Duration : 11mn 32s
Bit rate mode : Constant
Bit rate : 320 Kbps
Channel(s) : 2 channels
Sampling rate : 44.1 KHz
Resolution : 16 bits
Stream size : 26.4 MiB (16%)
Language : English (US)


Трекер:  [ 28-Сен-2013 23:37 ]

  

Скачать .torrent

Размер .torrent файла 15 KB


Размер: 1.44 GB
Хэш (hash) релиза: beeee363f173bf797fddbcf7ecd34f7127f795e0

Еще никто не оставлял запись к записи скачать торрент 5 Клипов С Рэйной Джаггс - Кучерявая Шлюха С Огромными Дойками 10-ого Размера 5 Clips With Reina Juggs - Curly Giant Titted Slut . Будь первым!

!Обратная связь