Скачать порно через торрент Tokumu Sousakan Rei & Fuko Rei & Fuko, Special Duty Agent UnionPeer.org бесплатно онлайн HD качество

Скачать новое порно 2015, 2014 новинки через торрент UnionPeer.org

Порно торрент бесплатно ЮнионПир.орг

Если у вас наблюдаются проблемы со скриншотами, переходом по ссылками, скачиванием торрентов - проблемы в блокировщике рекламы AdBlock. #хорошегоДня!


Статистика раздачи
Размер:  8.74 GB   |    Зарегистрирован:  4 года   |    .torrent скачан:  208 раз   |   
Раздают:  1  
   
Загрузка...
 
Автор Сообщение

LinGr

avatar LinGr


Tokumu Sousakan Rei & Fuko / Rei & Fuko, Special Duty Agent
Rei and Fuko: Special Duty Agents / 特務捜査官レイ & 風子
Специальные Агенты Рей и Фуко

Год производства: 2006 г.
Жанр: Anal sex, Big tits, Group sex, Oral sex, X-Ray, Sci-Fi, Rape, Yuri, Tentacles, Monsters, Futanari
Серии: ep. 1-4 of 4
Продолжительность: 4x ~ 25 min
Цензура: Есть

Озвучка: Японская (Оригинальная)

Режиссер: Araki Hideki
Автор оригинала: Black Lilith, Lilith
Студия: Anime Antenna Group

Описание RUS:
Правительственные агенты расследуют дело о пропаже девушек.
Расследование их приводит в одно заброшенное здание, где, собственно и находятся преступники, но арестовать их не получилось...


Описание ENG:
Year 2054, Tokyo. Kirisawa Rei and Izumi Fuko are the capable special agent, commonly called Mayaku Tokuso, whose task is drug-crime investigation and to take down the drug syndicate in Tokyo. They were a perfect pair, getting over numerous bloodbaths together. One day, they had an information of 12 Angels, a drug syndicate that they had been searching for years, sneaking into the most dangerous city in Tokyo, Sinjyuku, where is rumored that their secret base is located. But it is a clever trap set by the boss Kiryu for the revenge on them...

Доп. информация: Экранизация известной игры студии Black Lilith
Информационные ссылки: AniDB - MAL - World Art - ХентайМаг

Качество видео: 4x DVD5
Формат видео: DVD Video
Видео кодек: MPEG2
Аудио кодек: AC3
Видео: 720х480, (16:9), 29,970 кадров/сек, ~ 8000 Кбит/сек, NTSC
Аудио: JAP, AC-3, 2 канала, 192 Кбит/сек, 48,0 КГц
Общее
Полное имя : J:\VIDEO_TS\VTS_01_1.VOB
Формат : MPEG-PS
Размер файла : 1024 Мбайт
Продолжительность : 16 м.
Режим общего битрейта : Переменный
Общий поток : 8452 Кбит/сек

Видео
Идентификатор : 224 (0xE0)
Формат : MPEG Video
Версия формата : Version 2
Профиль формата : Main@Main
Параметр BVOP формата : Да
Параметр матрицы формата : По умолчанию
Параметр GOP формата : Variable
Продолжительность : 16 м.
Вид битрейта : Переменный
Битрейт : 8092 Кбит/сек
Максимальный битрейт : 8000 Кбит/сек
Ширина : 720 пикселей
Высота : 480 пикселей
Соотношение сторон : 4:3
Частота кадров : 29,970 кадров/сек
Стандарт вещания : NTSC
Цветовое пространство : YUV
Субдискретизация насыщенности : 4:2:0
Битовая глубина : 8 бит
Тип развёртки : Чересстрочная
Порядок развёртки : Нижнее поле первое
Метод сжатия : С потерями
Бит/(Пиксели*Кадры) : 0.781
Временной код первого кадра : 00:00:00:00
Оригинал временного кода : Group of pictures header
Размер потока : 980 Мбайт (96%)

Аудио
Идентификатор : 189 (0xBD)-128 (0x80)
Формат : AC-3
Формат/Информация : Audio Coding 3
Расширение режима : CM (complete main)
Параметр Endianness формата : Big
Режим смешивания : DVD-Video
Продолжительность : 16 м.
Вид битрейта : Постоянный
Битрейт : 192 Кбит/сек
Каналы : 2 канала
Расположение каналов : Front: L R
Частота : 48,0 КГц
Битовая глубина : 16 бит
Метод сжатия : С потерями
Размер потока : 23,3 Мбайт (2%)

Меню


Трекер:  [ 27-Сен-2013 23:58 ]

  

Скачать .torrent

Размер .torrent файла 22 KB


Размер: 8.74 GB
Хэш (hash) релиза: dc6ba1504b5d79525fb333e01dd3e0f4aef231c3

bot

Топик был перенесен в форум Хентай | С цензурой

Перенес LinGr

Хотите добавить комментарий к записи скачать торрент Tokumu Sousakan Rei & Fuko Rei & Fuko, Special Duty Agent

!Обратная связь