Скачать через торрент музыку Ваджда Wadjda бесплатно без регистрации torrent

Если у вас наблюдаются проблемы со скриншотами, переходом по ссылками, скачиванием торрентов - проблемы в блокировщике рекламы AdBlock. #хорошегоДня!


Статистика раздачи
Размер:  189 MB   |    Зарегистрирован:  3 года 10 месяцев   |    .torrent скачан:  56 раз   |   
Раздают:  1  
   
Загрузка...
 
Автор Сообщение

Galfimbul

avatar Galfimbul


Ваджда / Wadjda
Жанр: Score / Soundtrack
Композитор: Max Richter
Год выпуска диска: 2013
Год выпуска фильма: 2012
Производитель диска: USA
Издатель (лейбл): Milan Music
Номер по каталогу: M2-36648
Аудиокодек: FLAC (*.flac)
Тип рипа: tracks+.cue
Битрейт аудио: lossless
Продолжительность: 00:32:34
Источник: what.cd / nazgul68
Наличие сканов в содержимом раздачи: да
01. Saleh Alaolaiany / Yousef Alali - Wadjda (Opening Titles) (2:22)
02. Max Richter - Waiting (0:52)
03. Grouplove - Tongue Tied (3:39)
04. Max Richter - The Walk (1:33)
05. Max Richter and Arthur Hornig - The Vision (1:22)
06. Max Richter - The House (1:53)
07. Stephen Day and Adam Fox - 121 Solo (4:19)
08. Max Richter - Passing Time (1:29)
09. Max Richter - The Gaze (0:47)
10. Max Richter - A Moment (0:58)
11. Max Richter - Movement (0:47)
12. Max Richter - Darkness (1:21)
13. Max Richter - Sequence (2:28)
14. Max Richter - Conversation (3:30)
15. Max Richter - The Release (2:37)
16. Max Richter - Wadjda''s Journey (2:39)
Exact Audio Copy V1.0 beta 3 from 29. August 2011

EAC extraction logfile from 25. September 2013, 12:55

Max Richter / Wadjda

Used drive : HL-DT-STBD-RE BH10LS38 Adapter: 2 ID: 0

Read mode : SecureUtilize accurate stream : YesDefeat audio cache : YesMake use of C2 pointers : No

Read offset correction : 667Overread into Lead-In and Lead-Out : NoFill up missing offset samples with silence : YesDelete leading and trailing silent blocks : NoNull samples used in CRC calculations : YesUsed interface : Native Win32 interface for Win NT & 2000Gap handling : Appended to previous track

Used output format : User Defined EncoderSelected bitrate : 768 kBit/sQuality : HighAdd ID3 tag : NoCommand line compressor : C:\Program Files (x86)\Exact Audio Copy\FLAC\FLAC.EXEAdditional command line options : -8 -V -T "ARTIST=%artist%" -T "TITLE=%title%" -T "ALBUM=%albumtitle%" -T "DATE=%year%"-T "TRACKNUMBER=%tracknr%" -T "GENRE=%genre%" -T "PERFORMER=%albuminterpret%" -T "COMPOSER=%composer%" %haslyrics%--tag-from-file=LYRICS="%lyricsfile%"%haslyrics%-T "ALBUMARTIST=%albumartist%" -T "ALBUM ARTIST=%albumartist%" -T "DISCNUMBER=%cdnumber%" -T "TOTALDISCS=%totalcds%" -T "TOTALTRACKS=%numtracks%" -T "COMMENT=%comment%" %source% -o %dest%

TOC of the extracted CD

Track | Start | Length | Start sector | End sector --------------------------------------------------------- 1 | 0:00.00 | 2:21.71 | 0 | 10645 2 | 2:21.71 | 0:51.51 | 10646 | 14521 3 | 3:13.47 | 3:38.71 | 14522 | 30942 4 | 6:52.43 | 1:33.18 | 30943 | 37935 5 | 8:25.61 | 1:21.52 | 37936 | 44062 6 | 9:47.38 | 1:52.60 | 44063 | 52522 7 | 11:40.23 | 4:19.21 | 52523 | 71968 8 | 15:59.44 | 1:28.70 | 71969 | 78638 9 | 17:28.39 | 0:46.63 | 78639 | 82151 10 | 18:15.27 | 0:57.49 | 82152 | 86475 11 | 19:13.01 | 0:46.48 | 86476 | 89973 12 | 19:59.49 | 1:20.56 | 89974 | 96029 13 | 21:20.30 | 2:28.34 | 96030 | 107163 14 | 23:48.64 | 3:30.22 | 107164 | 122935 15 | 27:19.11 | 2:36.38 | 122936 | 134673 16 | 29:55.49 | 2:38.55 | 134674 | 146578

Track 1

Filename C:\Users\chris\Desktop\Rips\01 - Saleh Alaolaiany , Yousef Alali - Wadjda (Opening Titles).wav

Pre-gap length 0:00:02.00

Peak level 89.2 % Extraction speed 1.0 X Track quality 100.0 % Test CRC 04C075BF Copy CRC 04C075BF Track not present in AccurateRip database Copy OK

Track 2

Filename C:\Users\chris\Desktop\Rips\02 - Max Richter - Waiting.wav

Peak level 82.4 % Extraction speed 0.8 X Track quality 100.0 % Test CRC F3FA19C3 Copy CRC F3FA19C3 Track not present in AccurateRip database Copy OK

Track 3

Filename C:\Users\chris\Desktop\Rips\03 - Grouplove - Tongue Tied.wav

Peak level 78.4 % Extraction speed 1.2 X Track quality 100.0 % Test CRC 90ED17D7 Copy CRC 90ED17D7 Track not present in AccurateRip database Copy OK

Track 4

Filename C:\Users\chris\Desktop\Rips\04 - Max Richter - The Walk.wav

Peak level 96.4 % Extraction speed 1.1 X Track quality 100.0 % Test CRC FA62430E Copy CRC FA62430E Track not present in AccurateRip database Copy OK

Track 5

Filename C:\Users\chris\Desktop\Rips\05 - Max Richter and Arthur Hornig - The Vision.wav

Peak level 91.3 % Extraction speed 1.0 X Track quality 100.0 % Test CRC C2B4541D Copy CRC C2B4541D Track not present in AccurateRip database Copy OK

Track 6

Filename C:\Users\chris\Desktop\Rips\06 - Max Richter - The House.wav

Peak level 98.8 % Extraction speed 1.2 X Track quality 100.0 % Test CRC D6791857 Copy CRC D6791857 Track not present in AccurateRip database Copy OK

Track 7

Filename C:\Users\chris\Desktop\Rips\07 - Stephen Day and Adam Fox - 121 Solo.wav

Peak level 90.8 % Extraction speed 1.3 X Track quality 99.9 % Test CRC 726E6764 Copy CRC 726E6764 Track not present in AccurateRip database Copy OK

Track 8

Filename C:\Users\chris\Desktop\Rips\08 - Max Richter - Passing Time.wav

Peak level 98.8 % Extraction speed 1.0 X Track quality 99.8 % Test CRC BDAC6E31 Copy CRC BDAC6E31 Track not present in AccurateRip database Copy OK

Track 9

Filename C:\Users\chris\Desktop\Rips\09 - Max Richter - The Gaze.wav

Peak level 91.5 % Extraction speed 0.7 X Track quality 99.7 % Test CRC 0D1B8085 Copy CRC 0D1B8085 Track not present in AccurateRip database Copy OK

Track 10

Filename C:\Users\chris\Desktop\Rips\10 - Max Richter - A Moment.wav

Peak level 93.8 % Extraction speed 1.1 X Track quality 100.0 % Test CRC DD85B2AD Copy CRC DD85B2AD Track not present in AccurateRip database Copy OK

Track 11

Filename C:\Users\chris\Desktop\Rips\11 - Max Richter - Movement.wav

Peak level 98.8 % Extraction speed 1.0 X Track quality 100.0 % Test CRC 3641AC0A Copy CRC 3641AC0A Track not present in AccurateRip database Copy OK

Track 12

Filename C:\Users\chris\Desktop\Rips\12 - Max Richter - Darkness.wav

Peak level 98.8 % Extraction speed 1.3 X Track quality 100.0 % Test CRC 84E0399B Copy CRC 84E0399B Track not present in AccurateRip database Copy OK

Track 13

Filename C:\Users\chris\Desktop\Rips\13 - Max Richter - Sequence.wav

Peak level 94.9 % Extraction speed 1.5 X Track quality 100.0 % Test CRC 98036414 Copy CRC 98036414 Track not present in AccurateRip database Copy OK

Track 14

Filename C:\Users\chris\Desktop\Rips\14 - Max Richter - Conversation.wav

Peak level 98.8 % Extraction speed 1.7 X Track quality 100.0 % Test CRC 00FA5382 Copy CRC 00FA5382 Track not present in AccurateRip database Copy OK

Track 15

Filename C:\Users\chris\Desktop\Rips\15 - Max Richter - The Release.wav

Peak level 98.8 % Extraction speed 1.7 X Track quality 100.0 % Test CRC 00D98FD0 Copy CRC 00D98FD0 Track not present in AccurateRip database Copy OK

Track 16

Filename C:\Users\chris\Desktop\Rips\16 - Max Richter - Wadjda''s Journey.wav

Peak level 98.8 % Extraction speed 1.5 X Track quality 99.9 % Test CRC 139C0EAF Copy CRC 139C0EAF Track not present in AccurateRip database Copy OK

None of the tracks are present in the AccurateRip database

No errors occurred

End of status report

==== Log checksum C00B422F8C07FF0BF330380B961EF2514449BA544B20595F33C7258667101872 ====
REM GENRE SoundtrackREM DATE 2013REM DISCID BD07A210REM COMMENT "ExactAudioCopy v1.0b3"FILE "01 - Saleh Alaolaiany , Yousef Alali - Wadjda (Opening Titles).wav" WAVE TRACK 01 AUDIO INDEX 01 00:00:00FILE "02 - Max Richter - Waiting.wav" WAVE TRACK 02 AUDIO INDEX 01 00:00:00FILE "03 - Grouplove - Tongue Tied.wav" WAVE TRACK 03 AUDIO INDEX 01 00:00:00FILE "04 - Max Richter - The Walk.wav" WAVE TRACK 04 AUDIO INDEX 01 00:00:00FILE "05 - Max Richter and Arthur Hornig - The Vision.wav" WAVE TRACK 05 AUDIO INDEX 01 00:00:00FILE "06 - Max Richter - The House.wav" WAVE TRACK 06 AUDIO INDEX 01 00:00:00FILE "07 - Stephen Day and Adam Fox - 121 Solo.wav" WAVE TRACK 07 AUDIO INDEX 01 00:00:00FILE "08 - Max Richter - Passing Time.wav" WAVE TRACK 08 AUDIO INDEX 01 00:00:00FILE "09 - Max Richter - The Gaze.wav" WAVE TRACK 09 AUDIO INDEX 01 00:00:00FILE "10 - Max Richter - A Moment.wav" WAVE TRACK 10 AUDIO INDEX 01 00:00:00FILE "11 - Max Richter - Movement.wav" WAVE TRACK 11 AUDIO INDEX 01 00:00:00FILE "12 - Max Richter - Darkness.wav" WAVE TRACK 12 AUDIO INDEX 01 00:00:00FILE "13 - Max Richter - Sequence.wav" WAVE TRACK 13 AUDIO INDEX 01 00:00:00FILE "14 - Max Richter - Conversation.wav" WAVE TRACK 14 AUDIO INDEX 01 00:00:00FILE "15 - Max Richter - The Release.wav" WAVE TRACK 15 AUDIO INDEX 01 00:00:00FILE "16 - Max Richter - Wadjda''s Journey.wav" WAVE TRACK 16 AUDIO INDEX 01 00:00:00


Трекер:  [ 14-Дек-2013 21:44 ]

  

Скачать .torrent

Размер .torrent файла 16 KB


Размер: 189 MB
Хэш (hash) релиза: 0497afcd5159b51d20117dbbb64b3c175c3b71f8

bot

Топик был перенесен в форум Саундтреки к фильмам и мультфильмам (lossless)

Перенес Galfimbul

Хотите добавить комментарий к записи скачать торрент Ваджда Wadjda

!Обратная связь