Скачать через торрент музыку Болот Байрышев - Ай эскиде - 2012, FLAC бесплатно без регистрации torrent

Если у вас наблюдаются проблемы со скриншотами, переходом по ссылками, скачиванием торрентов - проблемы в блокировщике рекламы AdBlock. #хорошегоДня!


Статистика раздачи
Размер:  190 MB   |    Зарегистрирован:  3 года 10 месяцев   |    .torrent скачан:  145 раз   |   
Раздают:  1  
   
Загрузка...
 
Автор Сообщение

Polarnik

avatar Polarnik


Болот Байрышев / Ай эскиде

Жанр: Acoustic
Страна-производитель диска: Россия
Год издания: 2012
Издатель (лейбл): Болот Байрышев
Страна: Россия
Аудиокодек: FLAC (*.flac)
Тип рипа: tracks+.cue
Битрейт аудио: lossless
Продолжительность: 36:00
Источник (релизер): Собственный рип
Наличие сканов в содержимом раздачи: нет
Треклист:
1. Jас (Весна)
2. Аҥчылар (Охотники)
3. Jaш Тужым (Детство)
4. Ырыс (Счастье)
5. Ойно Балам (Детям)
6. Кырлыгым (Кырылык)
7. Алтайды Эзедип (Размышление Об Алтае)
8. Келер Öйгӧ (Я Прошу)
9. Карлагаш (Ласточка)
10. Ачынба (Прости)
11. Jылдыстар (Во Сне)
12. Ай Эскиде (Новолуние)
Exact Audio Copy V1.0 beta 3 from 29. August 2011

Отчёт EAC об извлечении, выполненном 24. сентября 2013, 22:06

Болот Байрышев / Ай эскиде

Дисковод: _NEC CD-RW NR-9300A Adapter: 1 ID: 1

Режим чтения : ДостоверностьИспользование точного потока : ДаОтключение кэша аудио : ДаИспользование указателей C2 : Нет

Коррекция смещения при чтении : 685Способность читать области Lead-in и Lead-out : НетЗаполнение пропущенных сэмплов тишиной : ДаУдаление блоков с тишиной в начале и конце : НетПри вычислениях CRC использовались нулевые сэмплы : ДаИнтерфейс : Встроенный Win32-интерфейс для Win NT/2000Обработка зазоров : Добавлено к предыдущему треку

Выходной формат : Пользовательский кодировщикВыбранный битрейт : 128 kBit/sКачество : ВысокийДобавление ID3-тега : НетУтилита сжатия : C:\Program Files\Exact Audio Copy\Flac\flac.exeДополнительные параметры : -V -8 -T "Genre=%genre%" -T "Artist=%artist%" -T "Title=%title%" -T "Album=%albumtitle%" -T "Date=%year%" -T "Tracknumber=%tracknr%" -T "Comment=%comment%" %source%

TOC извлечённого CD

Трек | Старт | Длительность | Начальный сектор | Конечный сектор --------------------------------------------------------------------- 1 | 0:00.00 | 2:10.57 | 0 | 9806 2 | 2:10.57 | 2:14.52 | 9807 | 19908 3 | 4:25.34 | 4:01.15 | 19909 | 37998 4 | 8:26.49 | 2:17.65 | 37999 | 48338 5 | 10:44.39 | 3:57.44 | 48339 | 66157 6 | 14:42.08 | 2:00.74 | 66158 | 75231 7 | 16:43.07 | 3:07.10 | 75232 | 89266 8 | 19:50.17 | 5:50.39 | 89267 | 115555 9 | 25:40.56 | 2:53.14 | 115556 | 128544 10 | 28:33.70 | 1:55.67 | 128545 | 137236 11 | 30:29.62 | 2:16.01 | 137237 | 147437 12 | 32:45.63 | 3:20.32 | 147438 | 162469

Трек 1

Имя файла C:\Documents and Settings\Администратор\Рабочий стол\Болот Байрышев - Ай эскиде (2012)\01. Jас (Весна).wav

Длина предзазора 0:00:02.00

Пиковый уровень 100.0 % Скорость извлечения 4.0 X Качество трека 100.0 % CRC теста D6142218 CRC копии D6142218 Трек не обнаружен в базе AccurateRip Копирование... OK

Трек 2

Имя файла C:\Documents and Settings\Администратор\Рабочий стол\Болот Байрышев - Ай эскиде (2012)\02. Анчылар (Охотники).wav

Пиковый уровень 100.0 % Скорость извлечения 4.2 X Качество трека 100.0 % CRC теста 1353CCE1 CRC копии 1353CCE1 Трек не обнаружен в базе AccurateRip Копирование... OK

Трек 3

Имя файла C:\Documents and Settings\Администратор\Рабочий стол\Болот Байрышев - Ай эскиде (2012)\03. Jаш тужым (Детство).wav

Пиковый уровень 100.0 % Скорость извлечения 4.0 X Качество трека 99.9 % CRC теста F7A9F07E CRC копии F7A9F07E Трек не обнаружен в базе AccurateRip Копирование... OK

Трек 4

Имя файла C:\Documents and Settings\Администратор\Рабочий стол\Болот Байрышев - Ай эскиде (2012)\04. Ырыс (Счастье).wav

Пиковый уровень 100.0 % Скорость извлечения 4.9 X Качество трека 100.0 % CRC теста 383C56AF CRC копии 383C56AF Трек не обнаружен в базе AccurateRip Копирование... OK

Трек 5

Имя файла C:\Documents and Settings\Администратор\Рабочий стол\Болот Байрышев - Ай эскиде (2012)\05. Ойно балам (Детям).wav

Пиковый уровень 100.0 % Скорость извлечения 4.4 X Качество трека 99.9 % CRC теста 4A5ADE0C CRC копии 4A5ADE0C Трек не обнаружен в базе AccurateRip Копирование... OK

Трек 6

Имя файла C:\Documents and Settings\Администратор\Рабочий стол\Болот Байрышев - Ай эскиде (2012)\06. Кырлыгым (Кырлык).wav

Пиковый уровень 100.0 % Скорость извлечения 5.2 X Качество трека 100.0 % CRC теста 75CA5DE1 CRC копии 75CA5DE1 Трек не обнаружен в базе AccurateRip Копирование... OK

Трек 7

Имя файла C:\Documents and Settings\Администратор\Рабочий стол\Болот Байрышев - Ай эскиде (2012)\07. Алтайды эзедип (Размышление об Алтае).wav

Пиковый уровень 100.0 % Скорость извлечения 4.4 X Качество трека 99.8 % CRC теста 4609E83D CRC копии 4609E83D Трек не обнаружен в базе AccurateRip Копирование... OK

Трек 8

Имя файла C:\Documents and Settings\Администратор\Рабочий стол\Болот Байрышев - Ай эскиде (2012)\08. Клер ойго (Я прошу).wav

Пиковый уровень 100.0 % Скорость извлечения 6.2 X Качество трека 99.9 % CRC теста EF4B1122 CRC копии EF4B1122 Трек не обнаружен в базе AccurateRip Копирование... OK

Трек 9

Имя файла C:\Documents and Settings\Администратор\Рабочий стол\Болот Байрышев - Ай эскиде (2012)\09. Карлагаш (Ласточка).wav

Пиковый уровень 100.0 % Скорость извлечения 6.5 X Качество трека 100.0 % CRC теста CFDB7C5F CRC копии CFDB7C5F Трек не обнаружен в базе AccurateRip Копирование... OK

Трек 10

Имя файла C:\Documents and Settings\Администратор\Рабочий стол\Болот Байрышев - Ай эскиде (2012)\10. Ачынба (Прости).wav

Пиковый уровень 100.0 % Скорость извлечения 6.1 X Качество трека 100.0 % CRC теста DED353EE CRC копии DED353EE Трек не обнаружен в базе AccurateRip Копирование... OK

Трек 11

Имя файла C:\Documents and Settings\Администратор\Рабочий стол\Болот Байрышев - Ай эскиде (2012)\11. Jылдыстар (Во сне).wav

Пиковый уровень 100.0 % Скорость извлечения 6.5 X Качество трека 100.0 % CRC теста 39991CA8 CRC копии 39991CA8 Трек не обнаружен в базе AccurateRip Копирование... OK

Трек 12

Имя файла C:\Documents and Settings\Администратор\Рабочий стол\Болот Байрышев - Ай эскиде (2012)\12. Ай эскиде (Новолуние).wav

Пиковый уровень 100.0 % Скорость извлечения 7.2 X Качество трека 100.0 % CRC теста A14C1720 CRC копии A14C1720 Трек не обнаружен в базе AccurateRip Копирование... OK

Ни одного трека нет в базе AccurateRip

Ошибок не произошло

Конец отчёта

==== Контрольная сумма отчёта 044F48187B8B83827B51091B2546B7A40426BFB099174B93CE29A38506832F0F ====
REM GENRE AcousticREM DATE 2012REM DISCID 9908760CREM COMMENT "ExactAudioCopy v1.0b3"PERFORMER "Болот Байрышев"TITLE "Ай эскиде"FILE "01. Jас (Весна).wav" WAVE TRACK 01 AUDIO TITLE "Jас (Весна)" PERFORMER "Болот Байрышев" INDEX 01 00:00:00FILE "02. Анчылар (Охотники).wav" WAVE TRACK 02 AUDIO TITLE "Анчылар (Охотники)" PERFORMER "Болот Байрышев" INDEX 01 00:00:00FILE "03. Jаш тужым (Детство).wav" WAVE TRACK 03 AUDIO TITLE "Jаш тужым (Детство)" PERFORMER "Болот Байрышев" INDEX 01 00:00:00FILE "04. Ырыс (Счастье).wav" WAVE TRACK 04 AUDIO TITLE "Ырыс (Счастье)" PERFORMER "Болот Байрышев" INDEX 01 00:00:00FILE "05. Ойно балам (Детям).wav" WAVE TRACK 05 AUDIO TITLE "Ойно балам (Детям)" PERFORMER "Болот Байрышев" INDEX 01 00:00:00FILE "06. Кырлыгым (Кырлык).wav" WAVE TRACK 06 AUDIO TITLE "Кырлыгым (Кырлык)" PERFORMER "Болот Байрышев" INDEX 01 00:00:00FILE "07. Алтайды эзедип (Размышление об Алтае).wav" WAVE TRACK 07 AUDIO TITLE "Алтайды эзедип (Размышление об Алтае)" PERFORMER "Болот Байрышев" INDEX 01 00:00:00FILE "08. Клер ойго (Я прошу).wav" WAVE TRACK 08 AUDIO TITLE "Клер ойго (Я прошу)" PERFORMER "Болот Байрышев" INDEX 01 00:00:00FILE "09. Карлагаш (Ласточка).wav" WAVE TRACK 09 AUDIO TITLE "Карлагаш (Ласточка)" PERFORMER "Болот Байрышев" INDEX 01 00:00:00FILE "10. Ачынба (Прости).wav" WAVE TRACK 10 AUDIO TITLE "Ачынба (Прости)" PERFORMER "Болот Байрышев" INDEX 01 00:00:00FILE "11. Jылдыстар (Во сне).wav" WAVE TRACK 11 AUDIO TITLE "Jылдыстар (Во сне)" PERFORMER "Болот Байрышев" INDEX 01 00:00:00FILE "12. Ай эскиде (Новолуние).wav" WAVE TRACK 12 AUDIO TITLE "Ай эскиде (Новолуние)" PERFORMER "Болот Байрышев" INDEX 01 00:00:00


Трекер:  [ 25-Сен-2013 14:31 ]

  

Скачать .torrent

Размер .torrent файла 16 KB


Размер: 190 MB
Хэш (hash) релиза: 8e585cd8344ac86f465dc16171f459e7389deef6

Еще никто не оставлял запись к записи скачать торрент Болот Байрышев - Ай эскиде - 2012, FLAC . Будь первым!

!Обратная связь